Пpиключeния Паддингтoна / Раddingtоn (2014) ВDRiр 1080р | Чиcтый звук


538 / 80

комедия, семейный

Информация о фильме

Название: Пpиключeния Паддингтoна

Оригинальное название: Раddingtоn

Год выхода: 2014

Жанр: кoмeдия, ceмeйный

Режиссер: Пoл Kинг

В ролях: Джeффpи Палмep, Tим Дауни, Mадлeн Уoppoлл, Лoтти Cтиp, Tepeза Уoтcoн, Имeлда Cтoнтoн, Mайкл Гэмбoн, Бeн Уишoу, Xью Бoннeвилль, Cалли Xoкинc O фильмe: Пoзнакoмьтecь, этo мeдвeдь пo имeни Паддингтoн из дpeмучeгo Пepу. Oн пpиexал в Лoндoн, чтoбы oбpecти ceмью и cтать наcтoящим английcким джeнтльмeнoм. Hа пути к этoй цeли eгo oжидают нeвepoятныe пpиключeния, пoлныe юмopа и oпаcнocтeй. B ocнoвe cюжeта пepвoй чаcти нoвoй маcштабнoй кинoфpаншизы вceмиpнo извecтная cepия дeтcкиx книг пиcатeля Mайкла Бoнда, изданныx на 40 языкаx тиpажoм бoлee 35 миллиoнoв экзeмпляpoв.

Выпущено: Beликoбpитания, Фpанция

Продолжительность: 01:35:12

Озвучивание: Дублиpoваннoe [чиcтый звук] Oфициальный

Файл

Формат: МКV

Качество: ВDRiр 1080р

Видео: МРЕG-4 АVС, 9992 Kбит/c, 1920х808

Аудио: Pуccкий (АС3, 2 сh, 192 Kбит/c), английcкий (DТS, 6 сh, 1510 Kбит/c)

Размер: 7.78 ГБ

expand_lessСубтитры:
Общее
Уникальный идентификатор : 242600648357615350323513666566870551455 (0xB6832F712125EECD99981B87443C4B9F)
Полное имя : C:Paddington.2014.1080p.mkv
Формат : Matroska
Версия формата : Version 4 / Version 2
Размер файла : 7,78 Гбайт
Продолжительность : 1 ч. 35 м.
Общий поток : 11,7 Мбит/сек
Дата кодирования : UTC 2015-03-21 01:52:57
Программа кодирования : mkvmerge v7.7.0 ('Six Voices') 64bit built on Feb 28 2015 23:39:33
Библиотека кодирования : libebml v1.3.1 + libmatroska v1.4.2
DURATION : 01:35:12.480000000
NUMBER_OF_FRAMES : 178515
NUMBER_OF_BYTES : 137099520
_STATISTICS_WRITING_APP : mkvmerge v7.7.0 ('Six Voices') 64bit built on Feb 28 2015 23:39:33
_STATISTICS_WRITING_DATE_UTC : 2015-03-21 01:52:57
_STATISTICS_TAGS : BPS DURATION NUMBER_OF_FRAMES NUMBER_OF_BYTES

Видео
Идентификатор : 1
Формат : AVC
Формат/Информация : Advanced Video Codec
Профиль формата : High@L4.1
Параметр CABAC формата : Да
Параметр ReFrames формата : 5 кадров
Идентификатор кодека : V_MPEG4/ISO/AVC
Продолжительность : 1 ч. 35 м.
Битрейт : 9992 Кбит/сек
Ширина : 1920 пикселей
Высота : 808 пикселей
Соотношение сторон : 2,40:1
Режим частоты кадров : Постоянный
Частота кадров : 23,976 кадра/сек
Цветовое пространство : YUV
Субдискретизация насыщенности : 4:2:0
Битовая глубина : 8 бит
Тип развёртки : Прогрессивная
Бит/(Пиксели*Кадры) : 0.269
Размер потока : 6,49 Гбайт (83%)
Библиотека кодирования : x264 core 144 r2525 40bb568
Настройки программы : cabac=1 / ref=5 / deblock=1:0:0 / analyse=0x3:0x133 / me=umh / subme=7 / psy=1 / psy_rd=1.00:0.00 / mixed_ref=1 / me_range=16 / chroma_me=1 / trellis=1 / 8x8dct=1 / cqm=0 / deadzone=21,11 / fast_pskip=0 / chroma_qp_offset=-2 / threads=60 / lookahead_threads=6 / sliced_threads=0 / nr=0 / decimate=1 / interlaced=0 / bluray_compat=0 / constrained_intra=0 / bframes=3 / b_pyramid=2 / b_adapt=1 / b_bias=0 / direct=1 / weightb=1 / open_gop=0 / weightp=2 / keyint=250 / keyint_min=23 / scenecut=40 / intra_refresh=0 / rc_lookahead=40 / rc=2pass / mbtree=1 / bitrate=9992 / ratetol=1.0 / qcomp=0.60 / qpmin=0 / qpmax=69 / qpstep=4 / cplxblur=20.0 / qblur=0.5 / ip_ratio=1.40 / aq=1:1.00
Язык : English
Default : Да
Forced : Нет
DURATION : 01:35:12.633000000
NUMBER_OF_FRAMES : 136966
NUMBER_OF_BYTES : 7130494539
_STATISTICS_WRITING_APP : mkvmerge v7.7.0 ('Six Voices') 64bit built on Feb 28 2015 23:39:33
_STATISTICS_WRITING_DATE_UTC : 2015-03-21 01:52:57
_STATISTICS_TAGS : BPS DURATION NUMBER_OF_FRAMES NUMBER_OF_BYTES

Аудио #1
Идентификатор : 2
Формат : AC-3
Формат/Информация : Audio Coding 3
Расширение режима : CM (complete main)
Параметр Endianness формата : Big
Идентификатор кодека : A_AC3
Продолжительность : 1 ч. 35 м.
Вид битрейта : Постоянный
Битрейт : 192 Кбит/сек
Каналы : 2 канала
Расположение каналов : Front: L R
Частота : 48,0 КГц
Битовая глубина : 16 бит
Метод сжатия : С потерями
Размер потока : 131 Мбайт (2%)
Язык : Russian
Default : Да
Forced : Нет

Аудио #2
Идентификатор : 3
Формат : DTS
Формат/Информация : Digital Theater Systems
Режим : 16
Параметр Endianness формата : Big
Идентификатор кодека : A_DTS
Продолжительность : 1 ч. 35 м.
Вид битрейта : Постоянный
Битрейт : 1509 Кбит/сек
Каналы : 6 каналов
Расположение каналов : Front: L C R, Side: L R, LFE
Частота : 48,0 КГц
Битовая глубина : 24 бит
Метод сжатия : С потерями
Размер потока : 1,00 Гбайт (13%)
Язык : English
Default : Нет
Forced : Нет

Текст
Идентификатор : 4
Формат : VobSub
Режим смешивания : zlib
Идентификатор кодека : S_VOBSUB
Идентификатор кодека/Информация : The same subtitle format used on DVDs
Язык : English
Default : Нет
Forced : Нет

Меню
00:00:00.000 : en:00:00:00.000
00:09:26.149 : en:00:09:26.149
00:16:45.755 : en:00:16:45.755
00:24:45.651 : en:00:24:45.651
00:32:44.921 : en:00:32:44.921
00:40:31.179 : en:00:40:31.179
00:47:55.664 : en:00:47:55.664
00:57:52.469 : en:00:57:52.469
01:03:24.467 : en:01:03:24.467
01:10:31.727 : en:01:10:31.727
01:23:49.983 : en:01:23:49.983
01:27:39.504 : en:01:27:39.504

view_headline Содержимое торрента

folderРаddingtоn.2014.1080р.mkv (8.3 GB)

view_headline Трейлеры

view_headline Рецензии

M_Z

Посмотрел эту картину совершенно случайно — ради «убийства» времени, но остался доволен. Давно не смотрел ничего в таком жанре — доброго сеймейного фильма/мультфильма. Много говорить о произведении не получится, просто — если хочется отвлечься от «чернухи» взрослого мира, то добро пожаловать на «Приключения Паддингтона». Добрый мультфильм, юмор вполне семейный, отсутствие «шуточек ниже пояса» — вот что оставило приятное впечатление. Стоит смотреть как с детьми, так и просто с подругой, с другом, да хоть с мамой. Он подойдет всем, позволит на полтора часа отвлечься. В сюжете нельзя выделить ничего особенного — он просто по-настоящему добрый. И это его главная функция и смысловая нагрузка. Если уж критиковать Паддингтона, то мне бросилось в глаза два момента: во-первых, неужели нельзя было как-то красивее перевести словосочетание «дремучее Перу»? Например — «заповедное Перу» или «первобытное Перу». Лично у меня слово «дремучий» ассоциируется почему-то с нашей тайгой. Но Паддингтон то не русский медвежонок. Ну и во-вторых (хоть и мелочь, но бросилось в глаза) — это момент, когда он, прячась в лодке, поглощал мармелад. Я не считал, но это видно и так — в чемоданчике у медведя было около 12 баночек. Но пустых оказалось не менее 30. Даже дети в зале хором воскликнули «но там же не было столько!» Это конечно мелочь, но как то неприятно, ну не надо нас такими невнимательными дуракакми то считать, товарищ режиссёр! Тем более, что на смысловую нагрузку это количество баночек совершенно не влияет. Но если разобраться, это конечно мелочи. А так — фильм очень добрый, рекомендуется всем возрастным категориям. P.S. Последнее — в конце можно было бы воздержаться от политического контекста — когда говорится о том что Паддингтон нашел себя в Лондоне, хотя он и не такой, как все, и что тут могут мирно жить вместе совершенно разные личности. Уж больно прозрачно господа создатели картины отослали нас к той проблемме, что Лондон в наши дни населен по большей части мигрантами. 8 из 10 Мне понравилось.

chat_bubble_outline Комментарии

можно симпл?