Koнтинуум / Рrоjесt Аlmаnас (2014) ВDRiр 1080р | Чиcтый звук


1736 / 1035

фантастика, триллер

Информация о фильме

Название: Koнтинуум

Оригинальное название: Рrоjесt Аlmаnас

Год выхода: 2014

Жанр: фантаcтика, тpиллep

Режиссер: Дин Изpаэлайт

В ролях: Джoнни Уэcтoн, Coфия Блэк-Д'Элиа, Cэм Лepнep, Aллeн Eвангeлиcта, Эми Ландeкep, Гаpи Bикc, Mакceн Линтц, Гэpи Гpаббc, Mишeль ДeФpайтc, Kаppи Cтoун

О фильме: Oднажды пocлe пpocмoтpа cтаpoй плeнки co дня poждeния ужe взpocлый имeнинник замeтил ceбя «наcтoящeгo» в oтpажeнии на видeo. Cъeдаeмыe любoпытcтвoм, дpузья нашли чepтeжи таинcтвeннoгo уcтpoйcтва, пoxoжeгo на машину вpeмeни. Oни peшили дoдeлать ee и иcпpoбoвать, чтoбы вepнутьcя в пpoшлoe и иcпpавить нeкoтopыe oшибки. Ho чтo будeт, ecли гpуппа oтвязныx тинeйджepoв cлучайнo завладeeт машинoй вpeмeни? Oднoзначнo, будeт вeceлo! Пoка ктo-тo нe наpушит пpавила, и вeceлая шутка нe oбepнeтcя кoшмаpoм. Hадo тopoпитьcя вoccтанoвить кoнтинуум, пoка миp oкoнчатeльнo нe pазpушeн!

Выпущено: CШA / Insurgе Рiсturеs, МТV Films, Раrаmоunt Рiсturеs

Продолжительность: 01:46:12

Перевод: Пpoфeccиoнальный(пoлнoe дублиpoваниe)-Чиcтый звук

Файл

Качество: ВDRiр 1080р

Формат: МКV

Видео: МРЕG4/АVС, 8800 Kбит/ceк, 1920x800 (2.40:1), 23.976 кадpа/ceк

Аудио 1: АС3, 2 канала, 384 Kбит/ceк |Pуccкий

Аудио 2: АС3, 6 каналoв, 640 Kбит/ceк |Aнглийcкий

Субтитры: Aнглийcкиe (Full, SDН)

Навигация по главам: Ecть

expand_lessMediaInfo:
Общее 
Уникальный идентификатор : 204288765390068328877836826902191457866 (0x99B095C646027ADCA09B79856630C64A)
Полное имя : Project Almanac. (2014) BDRip 1080p.mkv
Формат : Matroska
Версия формата : Version 2
Размер файла : 7,28 Гбайт
Продолжительность : 1 ч. 46 м.
Общий поток : 9817 Кбит/сек
Название фильма : Project Almanac. 2014
Дата кодирования : UTC 2015-05-16 12:54:24
Программа кодирования : mkvmerge v5.8.0 ('No Sleep / Pillow') built on Sep 2 2012 15:37:04
Библиотека кодирования : libebml v1.2.3 + libmatroska v1.3.0

Видео
Идентификатор : 1
Формат : AVC
Формат/Информация : Advanced Video Codec
Профиль формата : High@L4.1
Параметр CABAC формата : Да
Параметр ReFrames формата : 5 кадров
Идентификатор кодека : V_MPEG4/ISO/AVC
Продолжительность : 1 ч. 46 м.
Битрейт : 8800 Кбит/сек
Ширина : 1920 пикселей
Высота : 800 пикселей
Соотношение сторон : 2,40:1
Режим частоты кадров : Постоянный
Частота кадров : 23,976 кадра/сек
Цветовое пространство : YUV
Субдискретизация насыщенности : 4:2:0
Битовая глубина : 8 бит
Тип развёртки : Прогрессивная
Бит/(Пиксели*Кадры) : 0.239
Размер потока : 6,38 Гбайт (88%)
Заголовок : RARBG
Библиотека кодирования : x264 core 144 r2525 40bb568
Настройки программы : cabac=1 / ref=5 / deblock=1:0:0 / analyse=0x3:0x133 / me=umh / subme=7 / psy=1 / psy_rd=1.00:0.00 / mixed_ref=1 / me_range=16 / chroma_me=1 / trellis=1 / 8x8dct=1 / cqm=0 / deadzone=21,11 / fast_pskip=0 / chroma_qp_offset=-2 / threads=60 / lookahead_threads=6 / sliced_threads=0 / nr=0 / decimate=1 / interlaced=0 / bluray_compat=0 / constrained_intra=0 / bframes=3 / b_pyramid=2 / b_adapt=1 / b_bias=0 / direct=1 / weightb=1 / open_gop=0 / weightp=2 / keyint=250 / keyint_min=23 / scenecut=40 / intra_refresh=0 / rc_lookahead=40 / rc=2pass / mbtree=1 / bitrate=8800 / ratetol=1.0 / qcomp=0.60 / qpmin=0 / qpmax=69 / qpstep=4 / cplxblur=20.0 / qblur=0.5 / ip_ratio=1.40 / aq=1:1.00
Язык : English
Default : Да
Forced : Нет

Аудио #1
Идентификатор : 2
Формат : AC-3
Формат/Информация : Audio Coding 3
Расширение режима : CM (complete main)
Параметр Endianness формата : Big
Идентификатор кодека : A_AC3
Продолжительность : 1 ч. 46 м.
Вид битрейта : Постоянный
Битрейт : 384 Кбит/сек
Каналы : 2 канала
Расположение каналов : Front: L R
Частота : 48,0 КГц
Битовая глубина : 16 бит
Метод сжатия : С потерями
Размер потока : 292 Мбайт (4%)
Заголовок : D | Line
Язык : Russian
Default : Да
Forced : Нет

Аудио #2
Идентификатор : 3
Формат : AC-3
Формат/Информация : Audio Coding 3
Расширение режима : CM (complete main)
Параметр Endianness формата : Big
Идентификатор кодека : A_AC3
Продолжительность : 1 ч. 46 м.
Вид битрейта : Постоянный
Битрейт : 640 Кбит/сек
Каналы : 6 каналов
Расположение каналов : Front: L C R, Side: L R, LFE
Частота : 48,0 КГц
Битовая глубина : 16 бит
Метод сжатия : С потерями
Размер потока : 486 Мбайт (7%)
Заголовок : Original
Язык : English
Default : Нет
Forced : Нет

Текст #1
Идентификатор : 4
Формат : UTF-8
Идентификатор кодека : S_TEXT/UTF8
Идентификатор кодека/Информация : UTF-8 Plain Text
Заголовок : Full
Язык : English
Default : Нет
Forced : Нет

Текст #2
Идентификатор : 5
Формат : UTF-8
Идентификатор кодека : S_TEXT/UTF8
Идентификатор кодека/Информация : UTF-8 Plain Text
Заголовок : SDH
Язык : English
Default : Нет
Forced : Нет

Меню
00:00:00.000 : en:00:00:00.000
00:07:56.309 : en:00:07:56.309
00:15:20.211 : en:00:15:20.211
00:23:49.803 : en:00:23:49.803
00:31:15.665 : en:00:31:15.665
00:39:19.274 : en:00:39:19.274
00:46:58.274 : en:00:46:58.274
00:54:11.957 : en:00:54:11.957
01:00:55.485 : en:01:00:55.485
01:09:43.304 : en:01:09:43.304
01:16:24.371 : en:01:16:24.371
01:23:07.733 : en:01:23:07.733
01:32:20.618 : en:01:32:20.618
01:41:19.323 : en:01:41:19.323

Релиз от:

view_headline Содержимое торрента

folderРrоjесt Аlmаnас. (2014) ВDRiр 1080р.mkv (7.8 GB)

view_headline Трейлеры

view_headline Рецензии

Cherrytie

«You know what I would`ve done if I was smart enough to build a time machine? I would`ve gone back in time to meet you sooner». Фильм, чей релиз был отложен почти на год из-за небрежности режиссера, включившего в одну из монтажных версий кадры реальной авиакатастрофы, является типичным образцом молодежного кино в хорошем понимании этого слова. Продюсер Майкл Бэй, дистрибьютор MTV Films и 12-ть миллионов производственного бюджета, позволили постановщику дебютанту Дину Израэлите не ограничивать свою фантазию и предложить зрителю еще одну киновариацию на тему путешествий во времени. Композицию «Проекта «Альманах» можно было наблюдать в таких картинах как «Earth to Echo», «Сигнал», «Хроника» и многих других, сюжет коих выстраивался вокруг подростков, столкнувшимся с чем-то сверхъестественным. Не используя спойлеров, фабула «Проекта «Альманах» формулируется следующим образом — группе многообещающих молодых людей, некоторые из которых собираются в лучшие технические университеты страны, попадают в руки секретные чертежи, по которым они без труда собирают машину времени. Так как средства на съемки были ограничены двузначным, а не трехзначным числом с шестью нолями, то выполнен фильм в стиле found footage, а временные прыжки ограничиваются несколькими годами и локациями заднего двора технически образованных школьников. Впервые пробующие свои навыки в области сценарного дела Джейсон Пэйген и Эндрю Дючман, повторяют ошибку почти любого начинающего литератора, концентрируя усилия на презентации оригинальной идеи, а не на ее разработке. Первая половина хронометража в 106 минут не содержит проблем относительно темпоритма и небанального развития сюжета — здесь репрезентируются основные характеры (главный герой, его приятель, возлюбленная и второстепенные персонажи — стандартный набор картины для тинэйджеров), а также происходят первые попытки сконструировать и использовать функциональное подобие Тардиса. Все это наполнено драйвом и легко заинтересовывает зрителя, а вот вторая часть киноленты изобилует повторами (герои снова и снова исполняют однообразные танцы на грани прошлого и настоящего) и попыткой, словно наспех, наделить происходящее совсем необязательной для sci-fi фильма моралью. Центральный вопрос, возникающий, как только речь заходит о фильме, подобном «Проекту «Альманах», рассматривающем пространственно-временной континуум с позиций, альтернативных науке, заключается в том, какая темпоральная логика использована авторами. Пэйген и Дюмчан, обращаются к кальке с научной фантастики вроде «Терминатора: Генезис» и «Петли времени». Иными словами, изменение прошлого воздействует на будущее, а будущее в свою очередь трансформирует прошедшее. До фантазий, вызывающих сомнения в адекватности сценаристов (какие, к примеру, выдает Стивен Моффат в «Докторе Кто»), «Проект «Альманах» не доходит, ограничиваясь рамками сожалений о невозможности вывести формулу первой влюбленности, даже используя машину времени. Конечно, «Проект «Альманах» не войдет в список культовых фильмов для тинэйджеров, но Дин Израэлите снял стилистически выдержанный found footage с естественными в своей игре молодыми актерами (имена которых ровным счетом ничего не скажут публике), пусть и не придав новых смыслов жанру научной фантастики, но и не снискав позора, что, учитывая засилье низкокачественных картин в прокате, уже своеобразное достижение. MTV Films решили задачу рыночного продвижения Windows Phone, xBox, Red Bull и ротируемых на канале артистов, а зрители получили развлекательную картину, от которой просто неадекватно требовать большего.

chat_bubble_outline Комментарии

Kick-Ass, а по подробнее можно, что в этом видео не так?

опять сцен-рип, как такое пропускают