Oмepзитeльная вocьмepка / Тhе Наtеful Еight (2015) ВDRiр 1080р | Linе , A


file_downloadСкачать (16 GB)

Не забудь поделиться:

676 / 44

вестерн

Информация о фильме

Название: Oмepзитeльная вocьмepка

Оригинальное название: Тhе Наtеful Еight

Год выхода: 2015

Жанр: Becтepн

Режиссер: Kвeнтин Tаpантинo

В ролях: Kуpт Pаcceлл, Cэмюэл Л. Джeкcoн, Tим Poт, Mайкл Mэдceн, Джeннифep Джeйcoн Ли, Чeннинг Tатум, Уoлтoн Гoггинc, Зoи Бeлл, Бpюc Дepн, Дeмиан Бишиp

О фильме: CШA пocлe Гpажданcкoй вoйны. Лeгeндаpный oxoтник за гoлoвами Джoн Pут пo кличкe Beшатeль кoнвoиpуeт заключeнную. Пo пути к ним пpибиваeтcя eщe oдин oxoтник. Cнeжная буpя вынуждаeт вcex тpoиx иcкать укpытиe в лавкe на oтшибe, гдe ужe pаcпoлoжилаcь вecьма пecтpая кoмпания: гeнepал, шepиф, мeкcиканeц, фpанцуз и кoвбoй… И oдин из ниx — нe тoт, за кoгo ceбя выдаeт.

Страна: CШA

Студия: Тhе Wеinstеin Соmраny

Продолжительность: 02:47:45

Перевод: Дублиpoванный Linе, Aвтopcкий oднoгoлocый

Файл

Кодек: МРЕG4 Vidео (Н264)

Качество: ВDRiр 1080р

Видео: 1920х696, 9618 Кbрs, 23.976fр

Звук: Aудиo #1: Pуccкий (АС3, 6 сh, 640 Kбит/c) Дублиpoванный Linе (Cбopка 5.1 by Wеty)Aудиo #2: Pуccкий (АС3, 2 сh, 192 Kбит/c) Дублиpoванный Linе + EcаpeвAудиo #3: Pуccкий (АС3, 6 сh, 448 Kбит/c) Aвтopcкий oднoгoлocый (Ecаpeв)Aудиo #4: Pуccкий (AC3, 6 сh, 448 Kбит/c) Aвтopcкий oднoгoлocый (Mатвeeв)Aудиo #5: Aнглийcкий (DТS, 6 сh, 1509 Kбит/c) Opигинал

expand_lessСубтитры:
Общее
Уникальный идентификатор : 228729244462237621618023442577232823197 (0xAC13A66D6458EDD1992AB27D371D039D)
Полное имя : C:TempThe.Hateful.Eight.2015.BDRip.1080p.mkv
Формат : Matroska
Версия формата : Version 2
Размер файла : 15,4 Гбайт
Продолжительность : 2 ч. 47 м.
Общий поток : 13,1 Мбит/сек
Дата кодирования : UTC 2016-03-07 08:54:22
Программа кодирования : mkvmerge v4.0.0 ('The Stars were mine') сборка от Jun 6 2010 16:18:42
Библиотека кодирования : libebml v1.0.0 + libmatroska v1.0.0

Видео
Идентификатор : 1
Формат : AVC
Формат/Информация : Advanced Video Codec
Профиль формата : High@L4.1
Параметр CABAC формата : Да
Параметр ReFrames формата : 5 кадров
Идентификатор кодека : V_MPEG4/ISO/AVC
Продолжительность : 2 ч. 47 м.
Битрейт : 9618 Кбит/сек
Ширина : 1920 пикселей
Высота : 696 пикселей
Соотношение сторон : 2,759
Режим частоты кадров : Постоянный
Частота кадров : 23,976 (24000/1001) кадра/сек
Цветовое пространство : YUV
Субдискретизация насыщенности : 4:2:0
Битовая глубина : 8 бит
Тип развёртки : Прогрессивная
Бит/(Пиксели*Кадры) : 0.300
Размер потока : 11,3 Гбайт (73%)
Библиотека кодирования : x264 core 142 r2431+42 c69a006 tMod [8-bit@all X86_64]
Настройки программы : cabac=1 / ref=5 / deblock=1:-3:-3 / analyse=0x3:0x133 / me=umh / subme=11 / psy=1 / fade_compensate=0.00 / psy_rd=0.90:0.00 / mixed_ref=1 / me_range=32 / chroma_me=1 / trellis=2 / 8x8dct=1 / cqm=0 / deadzone=21,11 / fast_pskip=0 / chroma_qp_offset=-2 / threads=60 / lookahead_threads=5 / sliced_threads=0 / nr=0 / decimate=0 / interlaced=0 / bluray_compat=0 / constrained_intra=0 / fgo=0 / bframes=8 / b_pyramid=2 / b_adapt=2 / b_bias=0 / direct=3 / weightb=1 / open_gop=0 / weightp=2 / keyint=240 / keyint_min=23 / scenecut=40 / intra_refresh=0 / rc_lookahead=60 / rc=crf / mbtree=0 / crf=15.7000 / qcomp=0.60 / qpmin=0:0:0 / qpmax=69:69:69 / qpstep=4 / vbv_maxrate=40000 / vbv_bufsize=30000 / crf_max=0.0 / nal_hrd=none / filler=0 / ip_ratio=1.40 / pb_ratio=1.30 / aq=1:0.90 / aq-sensitivity=10.00 / aq-factor=1.00:1.00:1.00 / aq2=0 / aq3=0
Язык : English
Default : Нет
Forced : Нет

Аудио #1
Идентификатор : 2
Формат : AC-3
Формат/Информация : Audio Coding 3
Расширение режима : CM (complete main)
Параметр Endianness формата : Big
Идентификатор кодека : A_AC3
Продолжительность : 2 ч. 47 м.
Вид битрейта : Постоянный
Битрейт : 640 Кбит/сек
Каналы : 6 каналов
Расположение каналов : Front: L C R, Side: L R, LFE
Частота : 48,0 КГц
Частота кадров : 31,250 кадров/сек (1536 spf)
Метод сжатия : С потерями
Размер потока : 768 Мбайт (5%)
Заголовок : DUB by Wety
Язык : Russian
Default : Да
Forced : Да

Аудио #2
Идентификатор : 3
Формат : AC-3
Формат/Информация : Audio Coding 3
Расширение режима : CM (complete main)
Параметр Endianness формата : Big
Идентификатор кодека : A_AC3
Продолжительность : 2 ч. 47 м.
Вид битрейта : Постоянный
Битрейт : 192 Кбит/сек
Каналы : 2 канала
Расположение каналов : Front: L R
Частота : 48,0 КГц
Частота кадров : 31,250 кадров/сек (1536 spf)
Метод сжатия : С потерями
Размер потока : 230 Мбайт (1%)
Заголовок : DUB + Есарев
Язык : Russian
Default : Нет
Forced : Нет

Аудио #3
Идентификатор : 4
Формат : AC-3
Формат/Информация : Audio Coding 3
Расширение режима : CM (complete main)
Параметр Endianness формата : Big
Идентификатор кодека : A_AC3
Продолжительность : 2 ч. 47 м.
Вид битрейта : Постоянный
Битрейт : 448 Кбит/сек
Каналы : 6 каналов
Расположение каналов : Front: L C R, Side: L R, LFE
Частота : 48,0 КГц
Частота кадров : 31,250 кадров/сек (1536 spf)
Метод сжатия : С потерями
Размер потока : 538 Мбайт (3%)
Заголовок : Д.Есарев
Язык : Russian
Default : Нет
Forced : Нет

Аудио #4
Идентификатор : 5
Формат : AC-3
Формат/Информация : Audio Coding 3
Расширение режима : CM (complete main)
Параметр Endianness формата : Big
Идентификатор кодека : A_AC3
Продолжительность : 2 ч. 47 м.
Вид битрейта : Постоянный
Битрейт : 448 Кбит/сек
Каналы : 6 каналов
Расположение каналов : Front: L C R, Side: L R, LFE
Частота : 48,0 КГц
Частота кадров : 31,250 кадров/сек (1536 spf)
Метод сжатия : С потерями
Размер потока : 538 Мбайт (3%)
Заголовок : А.Матвеев
Язык : Russian
Default : Нет
Forced : Нет

Аудио #5
Идентификатор : 6
Формат : DTS
Формат/Информация : Digital Theater Systems
Режим : 16
Параметр Endianness формата : Big
Идентификатор кодека : A_DTS
Продолжительность : 2 ч. 47 м.
Вид битрейта : Постоянный
Битрейт : 1509 Кбит/сек
Каналы : 6 каналов
Расположение каналов : Front: L C R, Side: L R, LFE
Частота : 48,0 КГц
Частота кадров : 93,750 кадра/сек (512 spf)
Битовая глубина : 24 бит
Метод сжатия : С потерями
Задержка видео : 11 мс.
Размер потока : 1,77 Гбайт (12%)
Язык : English
Default : Нет
Forced : Нет

Текст #1
Идентификатор : 7
Формат : UTF-8
Идентификатор кодека : S_TEXT/UTF8
Идентификатор кодека/Информация : UTF-8 Plain Text
Заголовок : Full Матвеев
Язык : Russian
Default : Нет
Forced : Нет

Текст #2
Идентификатор : 8
Формат : UTF-8
Идентификатор кодека : S_TEXT/UTF8
Идентификатор кодека/Информация : UTF-8 Plain Text
Заголовок : Full
Язык : English
Default : Нет
Forced : Нет

Меню
00:00:00.000 : en:Chapter 01
00:04:33.523 : en:Chapter 02
00:11:36.112 : en:Chapter 03
00:22:01.361 : en:Chapter 04
00:35:02.433 : en:Chapter 05
00:43:31.900 : en:Chapter 06
00:52:12.212 : en:Chapter 07
00:59:04.499 : en:Chapter 08
01:08:30.314 : en:Chapter 09
01:16:10.857 : en:Chapter 10
01:25:18.446 : en:Chapter 11
01:35:06.492 : en:Chapter 12
01:42:20.175 : en:Chapter 13
01:50:33.335 : en:Chapter 14
01:59:32.498 : en:Chapter 15
02:06:43.053 : en:Chapter 16
02:13:26.623 : en:Chapter 17
02:19:59.724 : en:Chapter 18
02:24:17.023 : en:Chapter 19
02:34:08.113 : en:Chapter 20
02:39:38.026 : en:Chapter 21
02:43:22.751 : en:Chapter 22
02:47:44.679 : en:Chapter 23

view_headline Трейлеры

view_headline Рецензии

Lychnos

Фильм втянул завязкой и загадкой, музыкой и кадром, но разочаровал и оставил мутный осадок. До какого-то момента смотреть интересно, но где-то с середины, если не раньше, спираль насилия все больше отодвигает и детектив, и интригу. Оторваться трудно — хочется узнать, чем закончится, да и Тарантино есть Тарантино, фильм держит, — но удовольствия не получаешь, разгадки выглядят банальными, а концовка предсказуемой. Количество насилия таково, что местами это скатывается на уровень «Техасской резни бензопилой». Возможно, режиссеру не мешает сходить к психологу… или посмотреть хорошее кино. Работа имеет и художественные изъяны. Во-первых, все «восемь» главных героев настолько отвратительны, что сливаются в некую массу. И уже какая разница, кто из них есть кто? Во-вторых, некоторые важные персонажи недораскрыты. С удивлением констатирую это про главную женскую роль: актрису упрекнуть не в чем, но по сценарию происходящее с ней однообразно. Пожалуй, на меня произвела приятное впечатление только та часть, где показана прелюдия описываемых событий. Там есть и приятные люди, и вообще все хорошо снято. Значит, может режиссер, когда хочет. Тогда непонятны просчеты в основной части.

chat_bubble_outline Комментарии

Автор, пожалуйста, выложи фильм в FullHD и без одноголосных авторских дорожек.

linect, бред это то что ты на свет появился, а это фильм шедевр без ковычек. и зачем спойлерить?

каждый актер в фильме-красавецкаждая история - офигеннаяантураж и атмосфера - бомбадетализация быта дикого запада - достовернафильм в жанре ТАРАНТИНО не нравится проходи мимо

Я смотрел в дубляже + Есарева. Смотреть можно, не лучший фильм Тарантино, както смахивает на Бешеных Псов, только както нуднее и не так ефектно. А так посмотреть уж стоит если заинтересовались. Звук не айс но бывает и хуже.

Смотреть лучше в дубляже Есарева или Матвеева ?

Bomber23, пожалуйста. Нет ничего печальней, чем испортить себе просмотр крутого фильма, половина которого в диалогах, озвучкой ребят с посредственным чувством юмора. Жаль, что до сих пор остались компании, не умеющие делать своё дело, либо берущиеся за жанр, который не потянут. Юморить не всем дано.

Спасибо biont , уже думал смотреть в дубляже..

А реклама говноказино присутствует?

Фильм, как всякий Тарантиновский, изобилует интересными диалогами. НО! ОЧЕНЬ РЕКОМЕНДУЮ НЕ СМОТРЕТЬ в дубляже. Есарев или Матвеев - однозначно. А то полфильма потеряете за пресным переводом и дурацкими нестёбными интонациями. Дубляж - точно в топку. Я сравнивал несколько забавных мест, и забавные они только в переводах Есарева и Матвеева. Матвеев - более вульгарный. Я смотрел в Есареве, иногда отматывая и переключаясь на Матвеева приколоться.

по просьбам выкладываю дубляж звук 5.1 + форсированные сабы на испанскую речь и не только.

начало мое мнение чуть затянуто, а так конечно фильм в коллекцию.рип хорош, звук 5.1 отличный

Тарантино во всей своей красе! Рип отличного качества!!

Бешанные Псы на Диком Западе.

Нормальный фильм. Только очень жестокий, как Бесславные ублюдки, куча героев, каждый со своей историей, а потом гора трупов. Но от Тарантино другого и не ждешь.спойлерСкрытый текстВ конце в живых остались только лошади, да и те наверное сдохли от голода, хотя нам этого не показали

не советую при тарантине вспоминать про кофе !особенно -предлогать его выпить с ним...тупой фильм-посмотрел и забыл

Мне понравился фильм! Местами поржал, в один момент даже тронул )) присутствуют трешовые сцены, вообщем марку держит, всё в стиле Тарантино ) Фильм однозначно стоит просмотра ) Времени потраченного не жаль )

Как по мне, фильм слабый, тот же Джанго интереснее будет. Хотя и на этот винегрет найдется едок.

рекламы нет. форсированных сабов тоже нет, испанской речи там на 5-10 секунд, сопровождается английским хардсабом вшитым в видеоряд

Есть ли форсированные сабы на испанскую речь?

Может кто-нибудь отдельно залить на яндекс/google диск, вот эту дорожку: Аудио #1: Русский Дублированный Line ?Будет признателен.

Какую озвучку выбрать для просмотра так какую дорогу выбрать подкаким номером лучше подскажите пожалуйста и в чем отличие??

А когда BD релиз Российский этого фильма ? Я что то не найду . Для коллекции качаю только BD образы .

СПАСИБо, качаем)