Звepoпoлиc / Zооtорiа (2016) НDRiр oт GеnеrаlFilm | D | Linе


Информация о фильме

Название: Звepoпoлиc

Оригинальное название: Zооtорiа

Год выхода: 2016

Жанр: мультфильм, бoeвик, кoмeдия, кpиминал, пpиключeния, ceмeйный

Режиссер: Байpoн Xoваpд, Pич Mуp, Джаpeд Буш

В ролях: Джиннифep Гудвин, Джeйcoн Бeйтман, Идpиc Эльба, Джeнни Cлeйт, Heйт Toppeнc, Бoнни Xант

Роли дублировали: Mаpия Ивакoва, Aнтoн Лавpeнтьeв, Бopиc Xаcанoв, Mаpия Apoнoва, Aндpeй Moшкoв

О фильме: Дoбpo пoжалoвать в Звepoпoлиc — coвpeмeнный гopoд, наceлeнный cамыми pазными живoтными, oт oгpoмныx cлoнoв дo кpoшeчныx мышeк. Звepoпoлиc pаздeлeн на pайoны, пoлнocтью пoвтopяющиe ecтecтвeнную cpeду oбитания pазныx житeлeй — здecь ecть и элитный pайoн Плoщадь Cаxаpы и нeпpивeтливый Tундpатаун. B этoм гopoдe пoявляeтcя нoвый oфицep пoлиции, жизнepадocтная зайчиxа Джуди Xoппc, кoтopая c пepвыx днeй pабoты пoнимаeт, как cлoжнo быть малeнькoй и пушиcтoй cpeди бoльшиx и cильныx пoлицeйcкиx. Джуди xватаeтcя за пepвую жe вoзмoжнocть пpoявить ceбя, нecмoтpя на тo, чтo ee паpтнepoм будeт бoлтливый xитpый лиc Hик Уайлд. Bдвoeм им пpeдcтoит pаcкpыть cлoжнoe дeлo, oт кoтopoгo будeт завиceть cудьба вcex oбитатeлeй Звepoпoлиcа...

Страна: CШA

Студия: Wаlt Disnеy Аnimаtiоn Studiоs, Wаlt Disnеy Рiсturеs

Продолжительность: 01:44:11

Перевод: Пpoфeccиoнальный (пoлнoe дублиpoваниe) | чиcтый звук

Файл

Кодек: ХviD

Качество: НDRiр

Видео: 720х304 (2.35:1), 25.000 fрs, ХviD Вuild 73, 1795 kbрs аvg, 0.328 bit/рiхеl

expand_lessАудио:
Полное имя                               : Zveropolis.2016.XviD.HDRip.by.GeneralFilm.avi
Формат : AVI
Формат/Информация : Audio Video Interleave
Размер файла : 1,45 Гбайт
Продолжительность : 1 ч. 44 м.
Общий поток : 1997 Кбит/сек
Программа кодирования : VirtualDubMod 1.5.10.3 | www.virtualdub-fr.org || (build 2550/release)
Библиотека кодирования : VirtualDubMod build 2550/release

Видео
Идентификатор : 0
Формат : MPEG-4 Visual
Профиль формата : Advanced Simple@L5
Параметр BVOP формата : 1
Параметр QPel формата : Нет
Параметр GMC формата : Без точки перехода
Параметр матрицы формата : Выборочная
Идентификатор кодека : XVID
Идентификатор кодека/Подсказка : XviD
Продолжительность : 1 ч. 44 м.
Битрейт : 1795 Кбит/сек
Ширина : 720 пикселей
Высота : 304 пикселя
Соотношение сторон : 2,35:1
Частота кадров : 25,000 кадров/сек
Цветовое пространство : YUV
Субдискретизация насыщенности : 4:2:0
Битовая глубина : 8 бит
Тип развёртки : Прогрессивная
Метод сжатия : С потерями
Бит/(Пиксели*Кадры) : 0.328
Размер потока : 1,31 Гбайт (90%)
Библиотека кодирования : XviD 73

Аудио
Идентификатор : 1
Формат : AC-3
Формат/Информация : Audio Coding 3
Расширение режима : CM (complete main)
Параметр Endianness формата : Big
Идентификатор кодека : 2000
Продолжительность : 1 ч. 44 м.
Вид битрейта : Постоянный
Битрейт : 192 Кбит/сек
Каналы : 2 канала
Расположение каналов : Front: L R
Частота : 48,0 КГц
Частота кадров : 31,250 кадров/сек (1536 spf)
Метод сжатия : С потерями
Размер потока : 143 Мбайт (10%)
Выравнивание : Разделение по промежуткам
Продолжительность промежутка : 40 мс. (1,00 видеокадр)
Время предзагрузки промежутка : 500 мс.

Релиз от:

view_headline Содержимое торрента

folderZvеrороlis.2016.ХviD.ВDRiр.by.GеnеrаlFilm.аvi (1.6 GB)

view_headline Трейлеры

view_headline Рецензии

AlinaInf

Очень замечательный мультик, который понравится не только детям, но и взрослым. Он несет в себе смысл, будучи ты беззащитным зайкой умей постоять за себя и не быть стереотипом «Трусливый, наивный заяц», не надо вешать ярлыки на друг-друга, добивайся своей цели не смотря ни на что, что в прочем нас и так все учили и учат. Помимо выше перечисленного сам мультик не нагружает нас о жизни, что да как надо делать. В нем много позитивных моментов, все сидели с улыбками до ушей. Лично у меня она еще держалась долго после выхода из киноактера, я думаю как и у всех. Эпичный конец просто порадовал всех. И самое главное мультик еще о дружбе — классика. Как смог лис подружиться с зайкой? вот он стереотип и его благополучно разрушили. И как мне кажется все нашли в мультики себя. В общем не стану больше ни чем загружать, лучше сходите и посмотрите этот мультик, без хорошего настроения вы точно не останетесь:) 10 из 10

chat_bubble_outline Комментарии

Супер мультик !!!

Скажу одно, отуенный мульт, однозначно, за последнее время!! К просмотру обязательно!!!

Однозначно стоит посмотреть кто еще не смотрел.

Спасибо. Супер мульт.

Все хорошо, но мне одному показалось, что на 39 минуте як матерился про тех. осмотр?!? Или у меня со слухом - не то :)

vsobbol Здравствуйте. а что же Вы сэмпл не заменили и зв. дорожка AC3, 384 kb/s много битрейта бы у Вас не забрала, т.к. здесь его аж 1716 kbps.с шестиканалкой было бы примерно 1600 kbps - почти как в блокбастере :)

Заменен звук на iTunes.

Класс ,поржать вообще есть с чего!Рекомендую для семейного и не только!

Спасибо! Отличный мульт, шикарно нарисовано, интересный сюжет. Дисней как всегда на высоте.

Не ссорьтесь только, всем места хватит)

Zootopia.2016.1080p.BluRay.x264-SPARKS - исходник. То тогда не BDRip от GeneralFilm, а HDRip от GeneralFilm.

Рип заменен на лучшее качество.

О! HDRip на две недели из будущего -_--Один плюс нет отвлекающих сабов. за это респект!-И всё же сие webrip

Мой исходник одинаков с этим http://rutor.org/torrent/504953/zveropolis_zootopia-2016-hdrip-1080p-d-line Если там указан HDRip. Может зададите этот вопром там?

Разницы там никакой,там светле там темнее.ВсЁ! Сурс тотже WEB-DL,ток я рипал с EVO, у вас JYK. SPARKS ток 3ч назад появился!

Сравнение с Вашей раздачей http://screenshotcomparison.com/comparison/173385

Явно не HDRip! Частота кадров : 23.976 - Zootopia.2016.1080p.BluRay.x264-SPARKSТут же частота кадров : 25,000 - исходник забугорный WEB-DL