Kнига джунглeй / Тhе Junglе Вооk (Джoн Фавpo / Jоn Fаvrеаu) [2016, Beликoбpитания, CШA, фэнтeзи, дpама, пpиключeния, ceмeйный, ВDRiр 1080р] Dub (iТunеs) + Ukr + Оriginаl Еng + Sub (Rus, Еng)


file_downloadСкачать (16 GB)

Не забудь поделиться:


Список файлов

Книга джунглей | The Jungle Book:

Год выпуска: 2016

Страна: США

Студия: Walt Disney Pictures

Жанр: Фэнтези, драма, приключения, семейный

Продолжительность: 01:45:55
-

Перевод: Профессиональный (дублированный) |

iTunes:

Cубтитры: Русские, английские

Оригинальная аудиодорожка: английский
-

Режиссёр: Джон Фавро / Jon Favreau
-

В ролях: Нил Сетхи, Билл Мюррей, Бен Кингсли, Идрис Эльба, Лупита Нионго, Скарлетт Йоханссон, Джанкарло Эспозито, Кристофер Уокен, Гарри Шендлинг, Брайтон Роуз
-

Описание: Это не просто история найденыша, ставшего волчонком и равным среди животных. Это история любви, преданности, смелости, история ученичества и наставничества, когда учитель жизнью отвечает за умения ученика. Ведь Маугли - детеныш человека, а значит, слабее любого щенка. И мудрым учителям: приютившим «лягушонка» волкам, Багире, Балу и Каа, нужно научить своего подопечного выживать в безумно богатых на опасности джунглях, а главное - уберечь от Шерхана, возненавидевшего нового обитателя с момента его появления.
-

Качество: BDRip 1080p | DON

Формат: МКV

Видео: x264, ~ 18500 kbps, 1920 x 1038 (1,85:1), 23,976 fps

Аудио 1: AC3, 48,0 КГц, 6 ch, 384 kbps - Rus

Аудио 2: AC3, 48,0 КГц, 6 ch, 640 kbps - Ukr

Аудио 3: DTS, 48,0 КГц, 6 ch, 1509 kbps - Eng

Субтитры: Русские (forced, full), английские (full, SDH)
- MediaInfo

Код:

expand_lessРаскрыть Код
x264 info
x264[info]: frame I:1076  Avg QP:13.64  size:375057
x264[info]: frame P:42170 Avg QP:16.57  size:152898
x264[info]: frame B:109113 Avg QP:17.55  size: 71869
x264[info]: consecutive B-frames:  5.7%  4.6% 17.5% 25.8% 13.2% 30.0%  2.1%  0.4%  0.5%
===========================================================
Общее
Уникальный идентификатор                 : 189462934413383440663628307870521259551 (0x8E893BDF279C9F1CB47A4352B5FC761F)
Полное имя                               : D:\загрузки\The Jungle Book 2016.D.1080p.BluRay .mkv
Формат                                   : Matroska
Версия формата                           : Version 4 / Version 2
Размер файла                             : 15,6 Гбайт
Продолжительность                        : 1 ч. 46 м.
Общий поток                              : 21,0 Мбит/сек
Дата кодирования                         : UTC 2016-08-11 21:11:25
Программа кодирования                    : mkvmerge v8.3.0 ('Over the Horizon') 64bit
Библиотека кодирования                   : libebml v1.3.1 + libmatroska v1.4.2
Видео
Идентификатор                            : 1
Формат                                   : AVC
Формат/Информация                        : Advanced Video Codec
Профиль формата                          : High@L4.1
Параметр CABAC формата                   : Да
Параметр ReFrames формата                : 4 кадра
Идентификатор кодека                     : V_MPEG4/ISO/AVC
Продолжительность                        : 1 ч. 46 м.
Битрейт                                  : 18,5 Мбит/сек
Ширина                                   : 1920 пикселей
Высота                                   : 1038 пикселей
Соотношение сторон                       : 1,85:1
Режим частоты кадров                     : Постоянный
Частота кадров                           : 23,976 кадра/сек
Цветовое пространство                    : YUV
Субдискретизация насыщенности            : 4:2:0
Битовая глубина                          : 8 бит
Тип развёртки                            : Прогрессивная
Бит/(Пиксели*Кадры)                      : 0.387
Размер потока                            : 13,4 Гбайт (86%)
Библиотека кодирования                   : x264 core 148 r2705 3f5ed56
Настройки программы                      : cabac=1 / ref=4 / deblock=1:-3:-3 / analyse=0x3:0x133 / me=umh / subme=11 / psy=1 / psy_rd=1.00:0.00 / mixed_ref=1 / me_range=32 / chroma_me=1 / trellis=2 / 8x8dct=1 / cqm=0 / deadzone=21,11 / fast_pskip=0 / chroma_qp_offset=-2 / threads=18 / lookahead_threads=3 / sliced_threads=0 / slices=4 / nr=0 / decimate=0 / interlaced=0 / bluray_compat=0 / constrained_intra=0 / bframes=8 / b_pyramid=2 / b_adapt=2 / b_bias=0 / direct=3 / weightb=1 / open_gop=0 / weightp=2 / keyint=250 / keyint_min=23 / scenecut=40 / intra_refresh=0 / rc_lookahead=40 / rc=2pass / mbtree=0 / bitrate=18500 / ratetol=1.0 / qcomp=0.65 / qpmin=0 / qpmax=51 / qpstep=4 / cplxblur=20.0 / qblur=0.5 / vbv_maxrate=62500 / vbv_bufsize=78125 / nal_hrd=none / filler=0 / ip_ratio=1.35 / pb_ratio=1.25 / aq=3:0.75 / zones=18479,23842,b=1.4/35048,38658,b=1.4/47041,49164,b=1.3/62368,69163,b=1.2/76931,81474,b=1.2/110801,134352,b=2
Язык                                     : English
Default                                  : Да
Forced                                   : Нет
Аудио #1
Идентификатор                            : 2
Формат                                   : AC-3
Формат/Информация                        : Audio Coding 3
Расширение режима                        : CM (complete main)
Параметр Endianness формата              : Big
Идентификатор кодека                     : A_AC3
Продолжительность                        : 1 ч. 46 м.
Вид битрейта                             : Постоянный
Битрейт                                  : 384 Кбит/сек
Каналы                                   : 6 каналов
Расположение каналов                     : Front: L C R, Side: L R, LFE
Частота                                  : 48,0 КГц
Битовая глубина                          : 16 бит
Метод сжатия                             : С потерями
Размер потока                            : 292 Мбайт (2%)
Заголовок                                : iTunes
Язык                                     : Russian
Default                                  : Да
Forced                                   : Нет
Аудио #2
Идентификатор                            : 3
Формат                                   : AC-3
Формат/Информация                        : Audio Coding 3
Расширение режима                        : CM (complete main)
Параметр Endianness формата              : Big
Идентификатор кодека                     : A_AC3
Продолжительность                        : 1 ч. 46 м.
Вид битрейта                             : Постоянный
Битрейт                                  : 640 Кбит/сек
Каналы                                   : 6 каналов
Расположение каналов                     : Front: L C R, Side: L R, LFE
Частота                                  : 48,0 КГц
Битовая глубина                          : 16 бит
Метод сжатия                             : С потерями
Размер потока                            : 486 Мбайт (3%)
Заголовок                                : Disney
Язык                                     : Ukrainian
Default                                  : Нет
Forced                                   : Нет
Аудио #3
Идентификатор                            : 4
Формат                                   : DTS
Формат/Информация                        : Digital Theater Systems
Режим                                    : 16
Параметр Endianness формата              : Big
Идентификатор кодека                     : A_DTS
Продолжительность                        : 1 ч. 46 м.
Вид битрейта                             : Постоянный
Битрейт                                  : 1509 Кбит/сек
Каналы                                   : 6 каналов
Расположение каналов                     : Front: L C R, Side: L R, LFE
Частота                                  : 48,0 КГц
Битовая глубина                          : 24 бит
Метод сжатия                             : С потерями
Размер потока                            : 1,12 Гбайт (7%)
Заголовок                                : Original
Язык                                     : English
Default                                  : Нет
Forced                                   : Нет
Текст #1
Идентификатор                            : 5
Формат                                   : UTF-8
Идентификатор кодека                     : S_TEXT/UTF8
Идентификатор кодека/Информация          : UTF-8 Plain Text
Заголовок                                : forced
Язык                                     : Russian
Default                                  : Да
Forced                                   : Нет
Текст #2
Идентификатор                            : 6
Формат                                   : UTF-8
Идентификатор кодека                     : S_TEXT/UTF8
Идентификатор кодека/Информация          : UTF-8 Plain Text
Заголовок                                : full
Язык                                     : Russian
Default                                  : Нет
Forced                                   : Нет
Текст #3
Идентификатор                            : 7
Формат                                   : UTF-8
Идентификатор кодека                     : S_TEXT/UTF8
Идентификатор кодека/Информация          : UTF-8 Plain Text
Заголовок                                : full
Язык                                     : English
Default                                  : Нет
Forced                                   : Нет
Текст #4
Идентификатор                            : 8
Формат                                   : UTF-8
Идентификатор кодека                     : S_TEXT/UTF8
Идентификатор кодека/Информация          : UTF-8 Plain Text
Заголовок                                : SDH
Язык                                     : English
Default                                  : Нет
Forced                                   : Нет
Меню
00:00:00.000                             : en:1
00:00:48.215                             : en:2
00:05:15.315                             : en:3
00:09:02.459                             : en:4
00:12:42.178                             : en:5
00:16:34.452                             : en:6
00:21:20.029                             : en:7
00:27:15.133                             : en:8
00:35:04.144                             : en:9
00:43:21.724                             : en:10
00:48:05.132                             : en:11
00:53:29.248                             : en:12
00:58:03.271                             : en:13
01:05:46.442                             : en:14
01:10:35.523                             : en:15
01:17:01.325                             : en:16
01:20:48.927                             : en:17
01:24:46.540                             : en:18
01:30:32.969                             : en:19
01:35:53.206                             : en:20

view_headline Содержимое торрента

folderТhе Junglе Вооk 2016.D.1080р.ВluRаy.mkv (17 GB)

view_headline Трейлеры

view_headline Рецензии

fabio52

Беспощадный и всепоглощающий «диснеевский» ремейк, добрался и до гениального произведения британца Редьярда Киплинга датированное аж 1893-1894 годами, с лёгкостью которое, в 2016 году, претерпело ряд изменений, как положительных, так и отрицательных, аккурат с подачи американского режиссёра Джона Фавро. Из положительного, пожалуй, стоит выделить пестристость картинки, более-менее компьютерную графику и пара/тройка экшн сцен. В остальном же неслась полная «отсебятина», переходившая в удручающее кощунство и в «осквернение святыни» с появлением каждого нового зверя, начиная от слишком ленивого Балу (Мюррей) и заканчивая «блатным» гигантопитеком королём Луи (Уокен). Такое коммерческое надругательство, естественно, сможет понравиться забывшим или вовсе не знающим подлинную «Книгу Джунглей», где для Маугли(Сетхи) было чуждо кого-то бояться и шухериться, как неотёсанному щенку, где Багира (Кингсли) была женского рода, Каа (Йоханссон) мужского, а Шар Хан(Эльба) не был таким наглым и чрезмерным троглодитом (от того убийства Акелы (Эспозито), я просто чуть не поперхнулся, мать-его «Тар Хуном», который пил в этот момент). И основной негативный фон исходит именно от несоответствия оригиналу, который, господин Фавро, лишил использовать для более увлекательного действа, но «обшибся» и на выходе получилась «винегретная каша» из рассказов Киплинга и строчек Джастина Маркса (типа сценариста). Нил Сетхи, которого утвердили на роль мальчика выросшего в волчьей стаи, просто выглядел нелепо, неестественно, а в некоторых моментах совсем анекдотично, забывая скорее всего, что на том «зелёном экране» ему дорисуют обезьяну или гигантских слонов, в общем аут полнейший. Другие актёры скрывались за маской графики и «выделить» кого-то не представляется возможным. Вердиктируя фильм «The Jungle Book», хочется провести параллель: если бы студия Дисней, Фавро и некий Маркс оставили в законах джунглей всё на своих местах, не уже ли фильм бы смотрелся менее увлекательным? Зачем коверкать историю? Эх, сегодня это риторический вопрос… Как-то так!

chat_bubble_outline Комментарии

Комедия супер, актёры на высоте, за добавленные русские сабы отдельно спасибо Тон!!!

4 из 10. (1 бал за музыку и 1 за атмосферу 70-х)
Спасибо.

А "EP's" гулять выйдут будут добавлены? =)-P.S. Monstercat MP3 (320 CBR)

Спасибо за сборник!
п.с.
Уважаемые, дайте скорости, не уходите с раздачи.

rogerxrz писал(а):

проблема с Monstercat 024 - Vanguard: треки не проматываются в аимпе, MPC виснет при перематывании
спасибо большое за качество
посмотрел, на источнике такая же проблема(

Йоперный театр - почти 45гб

ness83 писал(а):

Спасибо за сборник!
п.с.
Уважаемые, дайте скорости, не уходите с раздачи.
1000 %

Однозначно, лучший лэйбл на intelligent EDM-сцене последние пару лет! Кладезь качественной электронной музыки от исполнителей во всевозможных разношёрстных стилях!

Monstercat best of 2015 будет?

2015 - [MCLP003] - Fractal - Gaia
2015 - [MCLP004] - Nigel Good - Space Cadet
2013 - [MCEP033] - Televisor - Old Skool (The Remixes)
2014 - [MCEP053] - Au5 – Follow You (The Remixes)
2015 - [MCEP081] - Mr FijiWiji - Yours Truly (feat. Danyka Nadeau) (The Remixes)
2015 - [MCEP083] - Slips & Slurs - Restless Vicimus EP
2015 - [MCEP084] - Au5 & Fractal - Ison Pavonine
2015 - [MCEP085] - Pegboard Nerds - Get On Up (The Remixes)
файлы в этих папках играют, но не отображается битрейт и не возможно перемотать никуда...

На всякий случай, подведем итог о недостающих релизах по номерам в блоке с EPПодробнееMCEP004, MCEP005, MCEP006, MCEP007, MCEP008, MCEP010, MCEP011, MCEP012, MCEP013, MCEP014, MCEP016, MCEP017, MCEP019, MCEP021, MCEP022, MCEP023, MCEP024, MCEP025, MCEP026, MCEP027, MCEP029, MCEP031, MCEP034, MCEP035, MCEP042, MCEP044, MCEP046, MCEP047, MCEP048, MCEP050, MCEP051, MCEP052, MCEP054, MCEP055, MCEP060, MCEP061, MCEP062, MCEP064, MCEP066, MCEP088
Ровно 40 штук, хотя конечно возможно что под какими то номерами релизы не выходили вовсе. Но как памятка, для общего представления мне кажется лишним не будет.

Жду коли добавите - The Girl (The Remixes)

DrStandBy писал(а):

На всякий случай, подведем итог о недостающих релизах по номерам в блоке с EPПодробнееMCEP004, MCEP005, MCEP006, MCEP007, MCEP008, MCEP010, MCEP011, MCEP012, MCEP013, MCEP014, MCEP016, MCEP017, MCEP019, MCEP021, MCEP022, MCEP023, MCEP024, MCEP025, MCEP026, MCEP027, MCEP029, MCEP031, MCEP034, MCEP035, MCEP042, MCEP044, MCEP046, MCEP047, MCEP048, MCEP050, MCEP051, MCEP052, MCEP054, MCEP055, MCEP060, MCEP061, MCEP062, MCEP064, MCEP066, MCEP088
Ровно 40 штук, хотя конечно возможно что под какими то номерами релизы не выходили вовсе. Но как памятка, для общего представления мне кажется лишним не будет.
скрытый текстMCEP008, MCEP010, MCEP046

Когда новое обновление раздачи ?

Спасибо, браток! Годноту раздаёшь, да и ещё в хорошем качестве. Лучи добра тебе

Johnkmv
Как всегда просьба о копипейсте оформления

dimdza000 писал(а):

ness83 писал(а):
Спасибо за сборник!
п.с.
Уважаемые, дайте скорости, не уходите с раздачи.
1000 %
61 гигабайт ты чо?

kirdandan
Ты всегда можешь послушать перед скачиванием.

Остаюсь сидировать на постоянной основе! Спасибо атвору <3
И ждем The Girl (The Remixes)

Огромнейшее спасибо автору. Теперь моя жизнь будет полна музыки моего любимого лейбла

Johnkmv писал(а):

Обновление раздачи 24.07.2016
Обычным способом не забросишь оформление? А то я уже отстаю

Нет самого главного, альбома 000, который перед 001, где он?

HappySkalolaz писал(а):

Нет самого главного, альбома 000, который перед 001, где он?
Если вы про EP, то его сделали 018 по счету.

Прошу выложить Best of Drum N Bass & Drumstep, Vol. 2, очень жду
И Best of Dubstep, Vol. 2 тоже жду))

Johnkmv писал(а):

HappySkalolaz писал(а):
Нет самого главного, альбома 000, который перед 001, где он?
Рад, что Вы написали свой первый (за 4 года) комментарий в моей раздаче. Но почему же гневный? Для начала задайте корректно вопрос. О каком релизе идет речь? Сейчас могу с уверенностью сказать лишь одно - Вам здесь никто ничего не должен!
В раздаче отсутствует пилотный альбом, что непонятного? Вот список, по возможности добавьте в раздачу http://imgur.com/a/B7eXn

Таки после VA - Monstercat - 5 Year Anniversary не можете закинуть?

FixYourFace
Если треки получены не в результате рипа диска, следует привести отчет Audiochecker / AuCDtect / fooCDtect с целью определить соответствие источника стандарту CDDA.
Отчет нужно опубликовать, а также добавить к раздаче и перезалить торрент-файл.
Правила публикации и оформления раздач в lossless разделах категорий Музыка, Рок-музыка, Электронная музыка

порошков писал(а):

Качество видео: BDRemux
порошков писал(а):
Аудио: English: 48 kHz, DTS 5.1, 6ch ~1509 kbps avg

> The Naice Gays
школота малограмотная

Как там дела с оригинальной дорожкой?

Бодренький такой авантюрный боевичок про Павлика Морозофф в юбке. Пару раз даже улыбнулся при просмотре, но смеха не вызвал. Пальба почти в упор из автомата профессионалом и ни одного попадания (!) разочаровала. Слишком попсово. Вот рукопашка хорошо отработана. С выдумкой. Порадовала. В целом разок посмотреть можно.

Моё счастье от первой серии НЕСОКРУШИМО!!!
-
б\о
√ провереноRumiko

Наконец-то, новый сезон эпичной анимы для мужиков! Подписка.

А цензура (чёрные пятна на местах ран) будет убрана в следующих релизах, в блю-рэй версии?

пытаюсь скачать торент файл а мне 405 Not Allowed выдает

Как тут с ценузрой? Ну кровь и все такое, а то в ТВ-3 было дело. Вот думаю, ждать BD или так смотреть

Ozu_sensei писал(а):

Как тут с ценузрой? Ну кровь и все такое, а то в ТВ-3 было дело. Вот думаю, ждать BD или так смотреть
С цензурой всё в порядке. Чёрные облачка остались, но они не так сильно всё цензурят. Первые минуты второй серии доказывают. Даже с цензурой было ОТЛИЧНО ВИДНО что злодей там сделал...

Лол, Savage Garden в эндинге.

Вопрос знатокам - если начинать смотреть, то откуда? Просто я слышал, что практически весь материал из старых овашек есть в новых сериалах, фильма так и вообще в сети не найдёшь. Есть ли смысл их смотреть?

ЧУВАК ОГРОМНОЕ ТЕБЕ СПАСИБО!!!11 ДОБРА ТЕБЕ ЧУВАК!!!

О, наконец-то в жожу психодел вернули.

tres2 писал(а):

Вопрос знатокам - если начинать смотреть, то откуда? Есть ли смысл их смотреть?
А я вот советую посмотреть, не вместо, а вместе. Очень интересная там рисовка, тёмные цвета, еще более брутальная графика, своеобразная музыка. Понравится или нет - дело другое, но оценить, думаю, стоит.

Господи, какие же наркоманские способности тут у всех) считая главных героев.
И людям, которые читали мангу. Думаете, у этой арки будет еще 1 сезон или как? Говорят следующая арка очень фиговая.

Серий алмаза всего будет 39 (если не поделят как случилось с экранизацией 3 части) + одна ова. Насчет того, наскребут ли Давиды на 5 часть - не известно.
>Говорят следующая арка очень фиговая.
Дезинформация. Каждая часть по своему хороша. По крайней мере, я хочу услышать ор пулей и Your taste! A taste of liar!(c)

NyashkaCap писал(а):

Господи, какие же наркоманские способности тут у всех) считая главных героев.
Ну, г-н Араки честно назвал мангу JoJo's Bizarre Adventure. Назвал бы JoJo's Strictly Realistic Adventure - тогда вопросов бы не было. daniellya писал(а):Насчет того, наскребут ли Давиды на 5 часть - не известно.
На зарубежных ресурсах читал, что Fuji TV над ними шефствует, так что шансы того, что продолжения будут - немалые. Пока что David Production очень радует!

Чёрт, какая вкусная серия...
Вот бы мне так же зубы лечили!

daniellya писал(а):Насчет того, наскребут ли Давиды на 5 часть - не известно.
да куда ж они денутся)) манга вышла вся и давно,плюс - одна из самых популярных частей в Японии, ну и раз уж начали - надо добивать.
на самом деле, я просто очень надеюсь дождаться экранизации сбр))

Бросилось в глаза. 11 серия, 09:06, "Два года назад ему удалили желчный камень". Камни в желчном (особенно у дедушки: уже, наверное, крупные были) без самого желчного удалить невозможно даже в 2016-м, а в 1999 и подавно. Правильно будет "...удалили желчный пузырь."
Ну это такое, мелочи, без претензий к Anku, спасибо за апдейты.

Подписался. Спасибо :3

Ухты а когда же с озвучкой будет???

thelgrom писал(а):

Бросилось в глаза. 11 серия, 09:06, "Два года назад ему удалили желчный камень". Камни в желчном (особенно у дедушки: уже, наверное, крупные были) без самого желчного удалить невозможно даже в 2016-м, а в 1999 и подавно. Правильно будет "...удалили желчный пузырь."
Ну это такое, мелочи, без претензий к Anku, спасибо за апдейты.
Японист в треде поясняет: в оригинале он действительно говорит об удалении камней ИЗ желчного. Тоже удивился, погуглил, на японской викии процедуры "сигэ нару" однозначно нет. Скорее всего, Араки или ошибся, или уповал, что в течении нескольких лет (действие в манге относительно пишущего четвертую часть Араки происходило в недалеком будущем) способ удаления-таки найдут.

наканец-та!

http://jojo-animation.com/bddvd/13.html
・第37話
・第38話
・第39話
общее количество серий можно уже и обновить

deslol писал(а):

thelgrom писал(а):
Бросилось в глаза. 11 серия, 09:06, "Два года назад ему удалили желчный камень". Камни в желчном (особенно у дедушки: уже, наверное, крупные были) без самого желчного удалить невозможно даже в 2016-м, а в 1999 и подавно. Правильно будет "...удалили желчный пузырь."
Ну это такое, мелочи, без претензий к Anku, спасибо за апдейты.
Японист в треде поясняет: в оригинале он действительно говорит об удалении камней ИЗ желчного. Тоже удивился, погуглил, на японской викии процедуры "сигэ нару" однозначно нет. Скорее всего, Араки или ошибся, или уповал, что в течении нескольких лет (действие в манге относительно пишущего четвертую часть Араки происходило в недалеком будущем) способ удаления-таки найдут.
Интересно, спасибо.

deslol писал(а):

thelgrom писал(а):
Бросилось в глаза. 11 серия, 09:06, "Два года назад ему удалили желчный камень". Камни в желчном (особенно у дедушки: уже, наверное, крупные были) без самого желчного удалить невозможно даже в 2016-м, а в 1999 и подавно. Правильно будет "...удалили желчный пузырь."
Ну это такое, мелочи, без претензий к Anku, спасибо за апдейты.
Японист в треде поясняет: в оригинале он действительно говорит об удалении камней ИЗ желчного. Тоже удивился, погуглил, на японской викии процедуры "сигэ нару" однозначно нет. Скорее всего, Араки или ошибся, или уповал, что в течении нескольких лет (действие в манге относительно пишущего четвертую часть Араки происходило в недалеком будущем) способ удаления-таки найдут.
Господа, вы забываете, что в фонде Спидвагона могут сделать роботизированные конечности, да и медики там, как я понял, впереди планеты всей. Альтернативная реальность, все дела.

Дождался, спасибо за серию)

Вопрос к читавшим мангу:скрытый текстВ серии 15. Пойдём в гости к мангаке, часть 2 показали причину появления у Джёсукэ такой прически. Эту линию разовьют? (я про "таинственного незнакомца")

Почему так медленно переводят? Кому писать?

Arminkaa писал(а):

Почему так медленно переводят? Кому писать?
Можно написать Деду Морозу. Ещё можно про-спонсировать сабберов. Вам какой вариант больше нравится?

КИРАААААААААААААААААААААААААААА!!!

Порно Слоник писал(а):

"таинственного незнакомца"
это явно он сам....
и однозначно пояснят как оно так

Порно Слоник писал(а):

Вопрос к читавшим мангу:скрытый текстВ серии 15. Пойдём в гости к мангаке, часть 2 показали причину появления у Джёсукэ такой прически. Эту линию разовьют? (я про "таинственного незнакомца")

скрытый текстУвы, нет. А вообще это довольно часто встречающийся ход, правда не могу сказать был ли Джоджо родоначальником

Не уходите, пожалуйста, с раздачи после того, как выкладываете серию.

Как же мучительно онгоинг это смотреть, уф-уф.
Спасибо!

mist5782 писал(а):

Добавлена 21 серия.
Вернись, друже. Дай вытянуть.

Киллер Куин завезли!
...Только кривого какого-то...

AnastasiaM, спасибо Вам большое за возможность посмотреть этот фильм!С уважением и благодарностью за труд!

spasibo balshoe za serial MARIA SORTE ...... a 2 seriya kokda budet

Спасибо огромное!! Давно хотела посмотреть этот сериал. Надеюсь будут все серии.

Несколько дней вижу надпись "Подключение к пирам 97,2%".
Очень хочется посмотреть сериал!

Заколдованная раздача!
Не отображается в списке сидируемых раздач в профиле.

AnastasiaM писал(а):Странно. Раздаю с двух машин, с двух провайдеров

Элен Нуар
А у вас она полностью скачана? Это не ваш клиент случайно? -скрытый текст
В профиле отображает только 100% скачанные раздачи.
Если в клиенте добавить дополнительные столбцы - будет видно, сколько скачано.скрытый текст

Рapant писал(а):

Элен Нуар
А у вас она полностью скачана? Это не ваш клиент случайно? -скрытый текст
В профиле отображает только 100% скачанные раздачи.
Если в клиенте добавить дополнительные столбцы - будет видно, сколько скачано.скрытый текст

Честно говоря, я в этом чайник, и почему если она в самом клиенте раздаётся, в списке раздач в профиле её нет.

Элен Нуар
На втором скрине в сообщении выше приведедён пример, как такое может быть.
Ещё раз - в профиле показываются только раздачи, скачанные на 100 %
Если вы например не скачивали субтитры - раздача будет учитываться, но в профиле не будет показана.

Рapant писал(а):

Элен Нуар
На втором скрине в сообщении выше приведедён пример, как такое может быть.
Ещё раз - в профиле показываются только раздачи, скачанные на 100 %
Если вы например не скачивали субтитры - раздача будет учитываться, но в профиле не будет показана.
Всё скачалось и наладилось, спасибо огромное за помщь и терпение с чайниками!

Спасибо Вам большое, большое за возможность посмотреть этот сериал! С уважением за труд!

? недооформлено
Suisse7Цитата:Источник (релизер): Cобственная покупка
Укажите, пожалуйста, на каком сайте куплено, дайте ссылку или приведите скриншот покупкиЦитата:5.4. В оформлении всех раздач обязательным условием является наличие прямой ссылки на интернет-магазин либо другой сайт, через который официально распространяется релиз.
Для этого можно использовать поле в шаблоне Издатель(лейбл), а в поле Источник - откуда скачан/куплен материал, если они совпадают можно использовать только поле Источник.
В редких случаях когда ссылка работает для ограниченного количества пользователей, желательно в оформлении добавлять скриншот содержимого страницы источника закрытого магазина.
Правила оформления релизов для многоканальной и стерео Hi-Res музыки


√ проверено

Проект «Семейные архивы» - Лаврентьева Е. В. - Лондон: Впечатления русских путешественников в фотографиях и воспоминаниях конца XIX – начала XX века [2014, PDF, RUS] - http://rutracker.org/forum/viewtopic.php?t=5244772

Чоза вехаеска

огромное спасибо за труды Вайделот!!!!!!

подписка

В фильме слишком много ляпов и нелепых комментарриев.

Спасибо, глянем...
да, видео ряд куций какой-то, с текстом местами не вяжется, например по тексту рассказывают про "харрикейн" показывают "аэрокобру"... кадров интересных нет, постановочные съемки вообще ни о чем
что до текста, то озвучка на высшем уровне, хотя от текста хотелось бы большей законченности и связности
в общем режиссеру и автору тройку с минусом
Но (!) посмотреть обязательно стоит, очень полезно!

HDTV?? не IP?

ralf124c41+Цитата:Субтитры: русские, немецкие, нидерландские, румынские - prerendered (IDX+SUB); английские, французские - softsub (SRT)
Спросить хотел, а почему только английские и французские субтитры - текстовые, а остальные - графические?

ralf124c41+ писал(а):

LegendKiev писал(а):
ralf124c41+Цитата:Субтитры: русские, немецкие, нидерландские, румынские - prerendered (IDX+SUB); английские, французские - softsub (SRT)
Спросить хотел, а почему только английские и французские субтитры - текстовые, а остальные - графические?
Субтитры самого канала TV5MONDE Europe - в потоке все DVB-субтитры в растровом формате, кроме того в виде телетекста идут английские и французские, их и выгружаю в SRT.MediaInfo потока DVBGeneral
ID : 13100 (0x332C)
Complete name : e11.rec
Format : BDAV
Format/Info : Blu-ray Video
File size : 16.2 GiB
Duration : 10 h 14 min
Overall bit rate mode : Variable
Overall bit rate : 3 770 kb/s
Video
ID : 3522 (0xDC2)
Menu ID : 7322 (0x1C9A)
Format : MPEG Video
Format version : Version 2
Format profile : Main@Main
Format settings, BVOP : Yes
Format settings, Matrix : Custom
Format settings, GOP : Variable
Format settings, picture st : Frame
Codec ID : 2
Duration : 10 h 14 min
Bit rate : 3 416 kb/s
Maximum bit rate : 3 200 kb/s
Width : 720 pixels
Height : 576 pixels
Display aspect ratio : 16:9
Frame rate : 25.000 FPS
Standard : PAL
Color space : YUV
Chroma subsampling : 4:2:0
Bit depth : 8 bits
Scan type : Interlaced
Scan order : Top Field First
Compression mode : Lossy
Bits/(Pixel*Frame) : 0.329
Stream size : 14.7 GiB (91%)
Audio
ID : 3642 (0xE3A)
Menu ID : 7322 (0x1C9A)
Format : MPEG Audio
Format version : Version 1
Format profile : Layer 2
Mode : Joint stereo
Mode extension : Intensity Stereo + MS Stereo
Codec ID : 3
Duration : 10 h 14 min
Bit rate mode : Constant
Bit rate : 192 kb/s
Channel(s) : 2 channels
Sampling rate : 48.0 kHz
Compression mode : Lossy
Delay relative to video : -416 ms
Stream size : 845 MiB (5%)
Language : French
Text #1
ID : 3602 (0xE12)-891
Menu ID : 7322 (0x1C9A)
Format : Teletext Subtitle
Language : French
Text #2
ID : 3602 (0xE12)-892
Menu ID : 7322 (0x1C9A)
Format : Teletext Subtitle
Language : English
Menu
ID : 719 (0x2CF)
Menu ID : 7322 (0x1C9A)
Duration : 10 h 14 min
List : 3522 (0xDC2) (MPEG Video) / 3602 (0xE12)-891 (Teletext Subtitle, fr) / 3602 (0xE12)-892 (Teletext Subtitle, en) / 3642 (0xE3A) (MPEG Audio, French) / 3652 (0xE44) (DVB Subtitle) / 3682 (0xE62) (DVB Subtitle) / 3702 (0xE76) (DVB Subtitle) / 3712 (0xE80) (DVB Subtitle) / 3722 (0xE8A) (DVB Subtitle) / 3762 (0xEB2) (DVB Subtitle) / 3782 (0xEC6) (DVB Subtitle)
Language : / French / English / French
Service name : TV5MONDE EUROPE
Service provider : Arqiva
Service type : digital television

Понятно, спасибо

Огромное спасибо за проделанную работу. Очень жаль, что только 4 серии. Великолепный сериал. Не просто интересный сюжет, но и великолепное пособие для изучения языков. Огромнейшее Вам человеческое спасибо.

Спасибо за рип, говорят неплохое кино

Ton-ik
от души бро за рипчик

Спасибо Тоник за кинцо, глянем что там наснимали

Тоник спасибо за рип, ты лучший!!!

Почему вместо заявленного фильма раздается фильм "Сколько у тебя?"

Когда будет в 1080 ?

009il писал(а):

Тоник спасибо за рип, ты лучший!!!
Поддерживаю, Тон отличный релизер, а когда выкладывает собственные рипы просто красава жаль что рипает мало

Ton-ik писал(а):

Cубтитры: нет
отсутствуют оригинальные субтитры
T временная

sora92
Разрешения скриншотов не совпадает с указанным разрешением видео.

Ого! Persona99 решила попробовать себя в новом амплуа (взялась за озвучку дорам). Это достойно внимания!!!
Persona99 УДАЧИ Вам в этом деле, после выхода полной озвучки - обязательно посмотрю!

Кто смотрел ? Как оно?

kost12000 писал(а):

Кто смотрел ? Как оно?
Как говорится - "Хорошо, да мало"!

Maritushka
Здравствуйте!
Поправил оформление.
Ссылку на альтернативные раздачи, в заголовке, инфо данные, спойлер "Внимание! Раздача ведётся путём добавления новых серий."
√ провереноСпасибо!
Успехов Вам!

Maritushka, в названии темы исправьте Серии: 3 из 10

Core_soul
Огромное спасибо за ремукс такого шикарного издания! Великолепный фильм, один из самых лучших у Де Сика наряду с "Умберто Д" и "Чудом в Милане".

fontanis
Ух-ты в 32 от Вас, спасибо за Градского!

А "Экспедиция" и "Концерт-сюита" входят в ваши планы?
Или акустический Градский с песнями собственного сочинения вам менее интересен?
Спасибо за труды.

Core_soul
Большое спасибо за пополнение коллекции Жана Ренуара качественным ремуксом его первого звукового фильма с отличными актерами Мишелем Симоном и Фернанделем.

Постер.

Core_soul
судя по продолжиетльности, версия у вас другая
http://rutracker.org/forum/viewtopic.php?t=3846022
здесь более короткая, я так понимаю?

karta78
Ну блиииин...

Спасибо, давно ждал

спасибо, забрал! раздам 88

мечтаю о дтс звуке и в 3Д бы глянуть)

Народ!Дайте скорости на раздачу!

charlie88 писал(а):

Народ!Дайте скорости на раздачу!
да вроде нормально идёт...

с чего это багира стала муужского пола а удав каа женского

strongtequila писал(а):

с чего это багира стала муужского пола а удав каа женского
У Киплинга всегда так было.

Фильм для дошкольного возраста , мульты Маугли СССР , и то круче будут . Совершенно не понятно откуда такие рейтинги . Если только не брать в расчет что голосовали все транссексуалы мира и прочая шв....... ратующая о смене пола с малых лет .

Нормальный фильм. Яркий, добрый, динамичный. Разумеется, для детей в первую очередь. Сюжетная линия другая, нежели в книге или в советском мультфильме. Так это даже хорошо ИМХО.

Тигррр_17 писал(а):

Нормальный фильм. Яркий, добрый, динамичный. Разумеется, для детей в первую очередь. Сюжетная линия другая, нежели в книге или в советском мультфильме. Так это даже хорошо ИМХО.
Ха ,ха у нас лет через 10 будут сказки про Бабушку Мороза и внучка Снегурочку ,но тоже добрые - тоже будет нормально !?

Багира в оригинале самец, а что же вы в советское время не кудахтали о смене пола пантеры?

Потрясающе добрый и красивый фильм! Оценили всей семьей!
Очень красочный, животные прорисованы идеально. Советую всем, хоть где-то вернули пол персонажей к истоками, а то Багира девочка - Багира девочка)))))

Solemboom писал(а):

Багира в оригинале самец, а что же вы в советское время не кудахтали о смене пола пантеры?
Так кто им разрешал оригинал читать.

Цитата:релиз на Blu-Ray 30 августа 2016, «Уолт Дисней Компани СНГ»

T временная