(Ерiс Тrаnсе/Меlоdiс-Тrаnсе/Uрlifting-Тrаnсе/Еmоtiоnаl-Тrаnсе) Yаriс-Меlоdy - Меmоriеs &аmр; Drеаms 001-029, 2016, МР3, 256 kbрs


Жанр: Epic Trance/Melodic-Trance/Uplifting-Trance/Emotional-Trance

Страна исполнителя: Украина

Радио:

Music In Paradise

Год издания: 2016

Аудиокодек: МР3

Тип рипа: image

Битрейт аудио: 256 kbps

Продолжительность: 29:10:09 (~1 час/выпуск)

Yaric-Melody - Reaches Of Trance #001-057

view_headline Содержимое торрента

folderYаriс-Меlоdy - Меmоriеs & Drеаms
 attach_fileYaric-Melody - Memories & Dreams 021(02.11.16).mp3 (118 MB)
 attach_fileYaric-Melody - Memories & Dreams 010[Back In Time](17.08.16).mp3 (118 MB)
 attach_fileYaric-Melody - Memories & Dreams 025(30.11.16).mp3 (118 MB)
 attach_fileYaric-Melody - Memories & Dreams 018(12.10.16).mp3 (117 MB)
 attach_fileYaric-Melody - Memories & Dreams 003(22.06.16).mp3 (117 MB)
 attach_fileYaric-Melody - Memories & Dreams 009(10.08.16).mp3 (117 MB)
 attach_fileYaric-Melody - Memories & Dreams 002(15.06.16).mp3 (117 MB)
 attach_fileYaric-Melody - Memories & Dreams 024(23.11.16).mp3 (117 MB)
 attach_fileYaric-Melody - Memories & Dreams 020[Back In Time](26.10.16).mp3 (117 MB)
 attach_fileYaric-Melody - Memories & Dreams 022(09.11.16).mp3 (117 MB)
 attach_fileYaric-Melody - Memories & Dreams 014(14.09.16).mp3 (117 MB)
 attach_fileYaric-Melody - Memories & Dreams 019(19.10.16).mp3 (116 MB)
 attach_fileYaric-Melody - Memories & Dreams 028(21.12.16).mp3 (116 MB)
 attach_fileYaric-Melody - Memories & Dreams 023(16.11.16).mp3 (116 MB)
 attach_fileYaric-Melody - Memories & Dreams 011(24.08.16).mp3 (116 MB)
 attach_fileYaric-Melody - Memories & Dreams 029(28.12.16).mp3 (116 MB)
 attach_fileYaric-Melody - Memories & Dreams 027(14.12.16).mp3 (116 MB)
 attach_fileYaric-Melody - Memories & Dreams 013(07.09.16).mp3 (116 MB)
 attach_fileYaric-Melody - Memories & Dreams 008(03.08.16).mp3 (115 MB)
 attach_fileYaric-Melody - Memories & Dreams 016(28.09.16).mp3 (115 MB)
 attach_fileYaric-Melody - Memories & Dreams 026(07.12.16).mp3 (115 MB)
 attach_fileYaric-Melody - Memories & Dreams 015(21.09.16).mp3 (115 MB)
 attach_fileYaric-Melody - Memories & Dreams 007(20.07.16).mp3 (115 MB)
 attach_fileYaric-Melody - Memories & Dreams 017(05.10.16).mp3 (115 MB)
 attach_fileYaric-Melody - Memories & Dreams 001(08.06.16).mp3 (114 MB)
 attach_fileYaric-Melody - Memories & Dreams 005(06.07.16).mp3 (114 MB)
 attach_fileYaric-Melody - Memories & Dreams 004(29.06.16).mp3 (114 MB)
 attach_fileYaric-Melody - Memories & Dreams 006(13.07.16).mp3 (114 MB)
 attach_fileYaric-Melody - Memories & Dreams 012(31.08.16).mp3 (113 MB)
 attach_filecover.jpg (44 kB)
 attach_filetracklist.txt (17 kB)

chat_bubble_outline Комментарии

Где найти путь к файлу? у меня сразу программа, нет/Contents/MacOS/ .

Удивительно-бархатная гитара. Что-то от Carlos Santana, может и от Chris Rea. Достаточное количество шедевров на все вкусы. Праздник - появление на Трекере этой дискографии: все и сразу. Приятен и вокал. Мелодии ярки. Спасибище Юрию-морячку за добро.

Что за огрызок?

ConstantineBaidan писал(а):

Что за огрызок?
Спасибо, ваше мнение очень ценно, продолжайте в том же духе, если хотите ограничений на форуме

Это 1 сезон

Спасибо!
Только не понимаю одного - зачем его слили?..

Спасибо!!!
ColdFilm перевёл и озвучил все 10 серий, когда ждать оставшиеся 7-10 ?

Ура 7 ,, то по пол года ждем а тут сразу один за одним ))))

Упс,спасибоньки,ща заценим!

Заценил,,,,раздавать-то собираешься?
Да,,,,рановато порадовались,,,,,

Не качается

Не началась раздача

А начнется? Чем помочь???

скрытый текстhttp://mykitchenrules.su/pravila-moey-kuhni-7-sezon-na-russkom-yazyike/
смотрю тут, поделюсь)

Назовите папку как-нить аля мкр-7 или вы при добавлении каждого файла будите переименовывать папку и всем придется либо переименовывать перед скачкой либо качать все старые файлы заного или же вы для каждой серии по папке??
Ну и конечно же спасибо за раздачу и ни в коем случает не прекращайте выкладывать новые серии

Всё Ок,закачка пошла!
3 и 4 серии,конкретные проблемы со звуком,дальше не смотрел пока.

со звуком нормальным будет ? а то невозможно ((((

V-IRC
спс,теперь тоже там смотрю,6 серий уже выложено.

Воблерков на здоровье)

спасибо за старание ) звук нормальный .. Все супер

ТС, не переименовывайте папку каждый раз, пожалуйста. Зачем это? За раздачу спасибо.

У 7 части размер видео 640х352 а не 720х576 как заявлено.

Спаасибо!
У 7-ой серии размер в 3 раза меньше предыдущих серий

АВТОР ты читаешь коменты не? НЕ ПЕРЕИМЕНОВЫВАЙ папку емае, чо такое то

7-8 серии потеряли в качестве, прежде всего в озвучке -- ощутимые задержки по времени. К сожалению

номерацию лучше вести начиная с нуля- 01 и т.д., а то при переходе на двузначные, может начаться небольшой хаос

Флорида Р. - Кто твой город? Креативная экономика и выбор места жительства [2014, PDF, RUS] - http://rutracker.org/forum/viewtopic.php?t=5335878

ну неужели. Второй не досмотрел...Правда там пытался один человек озвучить, но так ужасно получилось...Надеюсь этот сезон не забросят. Релизеру огромное спасибо)

Огромное спасибо всей команде, кто причастен к выходу в свет этого замечательного сериала! Благодарю Вас за прекрасное настроение от просмотра! Успеха всегда и во всём!

большое спасибо!

Цитата:Реклама:
Присутствует логотип релиз группы
также присутствует рекламный видеоролик в начале 20 сек
а также рекламный харсдаб - об этом всем тоже надо указать, указав кол-во раз и продолжительность

Да блин! Верните!

sasha-shimon писал(а):

ждем проверки темы
Почему патч на Интерлюди нельзя скачать?

sasha-shimon
Приведите пожалуйста обоснование применения архива и скриншот его содержимого. Обоснование и скриншоты необходимо поместить под спойлер "Дополнительная информация".скрытый текстКод:[spoiler="Дополнительная информация"][/spoiler]

Скажите а персонажи и предметы все это осталось? Или опять качаться?

На Windows 8.1 пойдет?

sasha-shimon
Должно быть минимум три скриншота, сделанных с игры. Так как язык интерфейса заявлен русский, то необходимо не менее трех скринотов, показывающих качество перевода.
Скриншоты должны быть в виде превью. Минимальный размер - 640*480 точек.
Исправьте пожалуйста.

sasha-shimon
Скриншоты должны быть в виде превью.
Исправьте пожалуйста.

эммм,что - то с клиентом или с сервером,не заходит в игру,пишет просто ты входишь в игру и все

Добрый день.-Минимальный размер для скриншотов: 640х480. Максимальный: 1920х1200.-? недооформлено

не могу войти в игру. Виснет глухо при запуске ехе файла. Установка патча не помогает

Скажите на сколько надежный сервак? Будутли вайпы?

sasha-shimon
После исправления замечаний модератора необходимо писать ему об этом в ЛС. Раздач много, за всем не уследишь.
Все скриншоты должны быть одного размера. Второй скриншот у вас был большего размера, чем остальные. Исправил Вам.
Будьте внимательнее пожалуйста.

bruk67
Спасибо! Качаю обязательно.
...A3 Wartime Melodies - скачок иглы.
спасибо за "яблоки"

bruk67
на 00:31

bruk67 писал(а):Еще раз прослушал это место на пластинке, там нет скачка
На пластинке может и нет)
вот текст женского хора:
I remember oh so clear
The way it was last year
Попробуйте пропеть вместе с рипом начиная с 00:25)
слова The way проглочены

bruk67
Спасибо!!!

Спасибо And196922 за пластинку, а bruk67 за работу!

bruk67 писал(а):Пропел и добавил 3 секунды выпавшего фрагмента, теперь все слова на месте
Хорошо получилось))
Не хочу быть надоедливым, но там, на 00:31, всё-равно мелкий кусочек музыки вырван
Наверное, только "фанатеги" смогут подтвердить.

Я вот стесняюсь спросить bruk67 , прям сам напел? И судя по последнему посту и сам доиграет? Если так , то vitaleks бежит за литрой и мы идем к вам.

And196922
Соберётесь с друзьями перепеть альбом, перепойте его с такими пиками, должно хорошо получиться)скрытый текстDR Пики RMS Продолжительность трека
--------------------------------------------------------------------------------
DR10 -2.09 дБ -14.13 дБ 6:51 01-When Love...
DR12 -1.22 дБ -14.91 дБ 6:18 02-Yes, I Do
DR11 -3.44 дБ -17.14 дБ 4:30 03-Wartime Melodies
DR10 -1.44 дБ -13.62 дБ 6:31 04-Somebody Save Me
DR10 -2.25 дБ -13.73 дБ 5:55 05-Kiss Me Goobye
DR10 -2.99 дБ -15.81 дБ 6:09 06-You Can Be Happy
--------------------------------------------------------------------------------

Боюсь если решимся перепеть после перепить, результат весь рутрекер стошнит.

bruk67
Спасибо !
Орёл !

bruk67
Андрюша, я тащуууууся.
Спасибо!

bruk67 писал(а):Не может быть, вставку сделал точно по пикам
Поверьте мне, старому солдату, ну и т.д. )

mtfc писал(а):

bruk67 писал(а):Не может быть, вставку сделал точно по пикам
Поверьте мне, старому солдату, ну и т.д. )
Конечно, ритм сбивается!
За пластинку большое спасибо!

bruk67, пожелание) Если будете переделывать весь альбом, может чуть тише уровень громкости сделать..?
На You Can Be Happy есть маленькие, еле заметные, букашки таракашки) не знаю как их описать) + мелкий щелчок на 5:31

mtfc писал(а):

Если будете переделывать весь альбом, может чуть тише уровень громкости сделать..?
это невозможно, этот процесс без участия человеческих рук проходит, ну а во-вторых уровень и так как положено сделан

cimitero писал(а):уровень и так как положено сделан
кем положено?)

Наконец-то идеальное звучание этого альбома. Все красиво, все на своих местах. Замечательно, брависсимо, маэстро!

Неплохая комбинация: Обработка: Нетbruk67 писал(а):

Цитата:вставку сделал точно по пикам
Цитата:Щелчок отрисовал, ритм в нужном месте восстановил
Да и если было выпадение сигнала, следовательно какие-либо манипуляции в редакторе происходили! ?

Спасибо!!! (маленькое уточнение - B2 Kiss Me Goodbye) Ещё раз СПАСИБО!!!

mtfc писал(а):Надеюсь на этом всё)
Нет
Послушайте, пожалуйста, Kiss Me Goodbye на 5:40

bruk67 писал(а):

манипуляции это не обработка сигнала.
Удаление щелчка, тоже не считаю обработкой.
Это лично Ваше мнение. На самом деле, все Вами перечисленное и есть обработка. В том числе экспорт с сохранением, 24 битного сигнала в 32 битный. После любого действия программно происходит пересчет всех семплов.

mtfc писал(а):

mtfc писал(а):Надеюсь на этом всё)
Нет
Послушайте, пожалуйста, Kiss Me Goodbye на 5:40
К сожалению, есть скачок. Хорошо бы всё внимательно прослушать и попросить исправить (если это возможно) уважаемого bruk67. И ещё раз спасибо!!!

алексей вячеславович 71 писал(а):есть скачок. Хорошо бы всё внимательно прослушать
Раньше его не было.
.. вроде)

bruk67 писал(а):

Щелчок отрисовал, ритм в нужном месте восстановил
щелчок вырезается это самое простое и действенное, а всякие A.R.Т.A.R.Т. идут лесом

Это самое гнусное действие - вырезать щелчок. Сведущие в данной области его восстанавливают без потерь в микросекундах. Временной сдвиг, при вырезе, самая грубая работа пересчета семплов.
Этим занимаются профессионалы, по оцифровке и восстановлению с определенных носителей. Подавляющее большинство релизеров-цифровальщиков о том и ведать не хотят. Даёшь стране угля! Мелкого – но много!
http://avivas.ru/img/topic/10598/26.jpg

Т е вырезая щелчок, катастрофически теряем в качестве всего релиза?

Лично Вы не потеряете ничего, даже кастрировав фонограмму фифти\фифти.

Спасибо! Слушаю с удовольствием!

bruk67
Спасибо, Андрей за прекрасную музыку.
алексей вячеславович 71
На DISCOGS-e я поправил.
Kiss Me Goobye на Kiss Me Goodbye

stеreomuzzv писал(а):

Это самое гнусное действие - вырезать щелчок. Сведущие в данной области его восстанавливают без потерь в микросекундах. Временной сдвиг, при вырезе, самая грубая работа пересчета семплов.
щелчок это пропадание сигнала на некоторое время в результате сбоя, а поэтому его вырезание не нарушает целостности песни.
какие-либо другие действия в этом случае просто излишни.stеreomuzzv писал(а):
Этим занимаются профессионалы, по оцифровке и восстановлению с определенных носителей.
а мы тут не профессионалы, а любители, оцифровал пластинки и слушаешь, зачем морочиться больше требуемого? место выреза как правило неотличимо

Да, теперь всё четко. Спасибо, bruk!

stеreomuzzv писал(а):

Это самое гнусное действие - вырезать щелчок. Сведущие в данной области его восстанавливают без потерь в микросекундах. Временной сдвиг, при вырезе, самая грубая работа пересчета семплов.
Этим занимаются профессионалы, по оцифровке и восстановлению с определенных носителей. Подавляющее большинство релизеров-цифровальщиков о том и ведать не хотят. Даёшь стране угля! Мелкого – но много!
http://avivas.ru/img/topic/10598/26.jpg
Много ли "профессионалы" наремастировали качественных релизов старых групп?

cimitero
И чем, после вырезания, этоЦитата:некоторое время
компенсировать? А если некоторое время Х некоторое количество ? Думай чуток, пред тем, как ходить лесом...
-----------------------------------------------------------------------------------------------------------
Заметил таковую штуковину. Высказываются кому не все равно, крайне редко и коротко. А вот длинно и бестолково, пичем одни и те же, пофигисты высшей квалификации.
Вот от того и естьDmitryWox писал(а):

Много ли "профессионалы" наремастировали качественных релизов старых групп?
Кому мастерить ? Тем, кто схавает Ит Из.

stеreomuzzv писал(а):

И чем, после вырезания, это
Цитата:
некоторое время
компенсировать? А если некоторое время Х некоторое количество ? Думай чуток, пред тем, как ходить лесом...
какое еще -блин -время? вырезал щелчок или сколько их там и слушаешь чистую без щелчков запись.
что непонятно-то? чего компенсировать?
еще раз объясняю: щелчок это подскок иглы с пропуском музыки в этом месте, внутри него нет никакой информации, вырезаешь грубо говоря начало подскока и до момента приземления, скажем так, вот между двумя этими моментами нет ничего, поэтому вырез вообще не заметен, а если начинаешь fill single click и прочие премудрости -как правило заметно
PS ну а если ты из тех которые требуют сохранения пауз типа в оригинальном виде то это клиника и с тобой можно не спорить

cimitero
Глупость, полная. В момент:Цитата:подскок иглы с пропуском музыки в этом месте, внутри него нет никакой информации
на том месте, зашлакованном мусором, иглой должна была сниматься информация. Давай, продолжай выдумывать небылицы...

cimitero
stеreomuzzv
вы такие смешные милашки

maximiliаn

stеreomuzzv писал(а)::Цитата:
на том месте, зашлакованном мусором:
Не должно по идее быть, распечатана месяц назад. Под иглой второй раз. При печати могли накосячить.

stеreomuzzv писал(а):

на том месте, зашлакованном мусором, иглой должна была сниматься информация. Давай, продолжай выдумывать небылицы...
ага, теперь понял, ты прав)
но по опыту, вырезание этого щелчка самый простой и верный способ: это место неопределимо впоследствии.
тут еще такой момент: если у тебя десяток-другой пластинок то один щелчок можно убрать как положено по науке, но когда их много и щелчков тоже, то выбирается уже попроще вариант.

Aбpaкaдабр
Вот задай такой вопрос сам, возможно и получил бы ответ. А раз его просто переадресовал cimitero, поучая при том, что ему надо было делать, то и ответа не получишь.

Еще и пустозвон! ? болтаешь зазря

Ага. щА! все брошу и над, нахрен никому не нужным мусором, попиленным стальной иглой, буду потеть... Хорошую пластинку, причем раритетную, ту которой более нет, еще можно в работу пускануть. А с тем, где уже нет звука, сам штаны протирай.
bruk67
Захо`дите? нашу "потрепаться" почитать.

С удовольствием вынес бы моск, но " повода" даже не нашел. Так шо граждане специализды работайте.

Полезный такой отзыв от:[b]And196922[/b] писал(а):

С удовольствием вынес бы моск, но " повода" даже не нашел. Так шо граждане специализды работайте.

frfr;t
Классная фото-картина, не иначе. Думаю конец 50_х.

bruk67
Огромное спасибо! Этого сборника у меня не было ни на виниле, ни на CD, но была фирменная заводская кассета)
Отличный сборник!

Цитата:[quote](Pop) [LP] [32/192] Adriano Celentano - Коллекция (2 LP) - 1977-1985, WavPack (image+.cue)
спасибо огромное.

bruk67
С Новым Годом! Продолжение не намечается? А то общая папка обнадёживает)

bruk67
Отлично! Будем ждать. Спасибо!

Добрый день.
Сделайте скриншот содержания архива, по типу как у вас в предыдущей раздаче.

Извиняюсь спросить, а если нет полного источника, 0 - сидов, 0 - личей - это как и зачем?

Ukraine50 спасибо, сразу 6, круто!

Ukraine50
Спасибо за версию с субтитрами! Бурджу неожиданно-другая здесь!

Ukraine50, спасибо!!!

Ukraine50 спасибо за 28-ю серию!

Ukraine50 спасибо!

Ukraine50
большое спасибо!

А 30 серия планируется?

Фото из новой серии сериала "Песня жизни". В 20.00 на канале D







Ukraine50
Дружище, 32-ю ждать смысл есть?

спасибо

Ukraine50 спасибо за начало раздачи 3-го сезона!

ура!

Спасибо за оперативность!

Спасибо за фильм !!!

Когда будет 2 с

mourad-xac писал(а):

Когда будет 2 с
Когда переведут

Ждемс:)

Ukraine50 спасибо за 63-ю!

Сенкс!!!

дождались з-я

"Ссылка на предыдущие и альтернативные раздачи:"
—???

БЛАГОДАРСТВУЮ !!!

Сколько всего серии?

Ждем продолжения !!!

Ukraine50 писал(а):

66-я серия
! 1000 благодарностей !
Меня попросили Вам передать. Если это возможно, уменьшить звук оригинальной дорожки,... с уважением.

Ждем ждем дальше все интересней !!!

Спасибо добрый человек . Ждем продолжения !!!

От души Вам спасибо за труд. Сериал на мой взгляд очень хорош. Так ожидал продолжения только Аббатства Даунтон и Звездных врат

Подписка! Жду продолжения ) сериал отличный!

Уже вечер ждем новую серию от Вас !!!

Ждем продолжения !

даже и не ждали.....

Очень жаль что нет русские субтитров!
Давно я хочу посмотреть, очень жаль!

С НОВЫМ ГОДОМ !!! Всех благ Вам !!! Ждем новую серию !

где?

snv280458 писал(а):

где?
Что "где?" ???
Серия готова, автор раздачи в отъезде. Как вернется - всё будет. Вопросы аля "акагда?", "ахде?" и подобные никак не приблизят выход серии, могут даже наоборот.

наоборот? это угрозы?

snv280458 писал(а):

это угрозы?
Новый Год еще активно празднуется? Видимо да...
Всегда казалось, что какой-то сериал - это уж точно не то, чем можно шантажировать Имелось ввиду, что такие "акагда?", о которых уже не раз предупреждалось, отбивают у раздающего всяческое желание делать людям приятное. Вот и всё)
Серия передана, автор раздачи вернется - обновит.

спасибо

очень плохо, что раздача этого сериала ведется одним человеком, тысячи человек, не должны ждать одного, когда он вернется, незаменимых не должно быть, в добавок на НГ все хотели посмотреть новую серию......

bo198 писал(а):

очень плохо, что раздача этого сериала ведется одним человеком, тысячи человек, не должны ждать одного, когда он вернется, незаменимых не должно быть, в добавок на НГ все хотели посмотреть новую серию......
Вы хотели, чтобы одну раздачу вели 1000 (утрированно, естесственно) человек?
Много раз говорилось, что обновление делается тогда, когда есть возможность. Раздающий не обязан сидеть и сиюсекундно после выхода обновлять раздачи, у него, как и у любого нормального человека, есть свои дела, которые всегда ставятся выше какого-то сериала. Если вкратце - никто никому ничего не должен, все делается исключительно при наличии свободного времени и энтузиазма.
А на НГ "тысячи" человек ее бы не посмотрели, она вышла позже. Кстати, серия доступна в онлайн-просмотре

вы прекрасно поняли, о чем я написал, а когда более тысячи людей ждут одного, когда ему заблагорассудится выложить очередную серию, это непорядок, с его стороны свинство. Вот если бы он сам, а не вы, изложил ситуацию, вопросов бы не было. Насчет онлайн правильно, и в ВК давно выложили серию, но не все имеют смарт тв, а хочется посмотреть на большом экране.

bo198 писал(а):

Вот если бы он сам, а не вы, изложил ситуацию, вопросов бы не было.
Я потому и отписался, что у раздающего такой возможности нет. Ну вот просто физически нет, не бить же его за это
Выполняю просьбу коллеги)

подари ему айфон, в Днепре чудесный 3G. Спасибо.

я вас люблю!

У меня претензий нет, но если вы заговорили о людях, так думайте о них, нет возможности вовремя выложить серию, уведомите нас лично, и всё, разговор окончен был бы, зачем тратить время на этот пинг понг.

Sagol

зачем лично, не надо, но можно по человечески-серию выложу после праздника, и всё.
Спасибо за десяточку!

неплохой техно лейбл. очень радуют ремиксеры с некоторых еп (Mike Parker, Dino Sabatini, Svreca, Regis).
очень нейтрально отношусь к Ascion & D. Carbone, не совсем моё они ваяют.
baal1983 вам респект, а лучше респектище за лосслесс:D

https://soundcloud.com/selftitledmag/label-of-the-month-repitch

Ребят, вернитесь на раздачу, пожалуйста, третью неделю не могу скачать. Спасибо и с новым годом.

Если у кого в игре на ALSA нет звука, перед запускам сделайте export SDL_AUDIODRIVER=alsa
А лучше пропишите это себе в ~/.profile, ибо нужно и другим играм.

боже, как рад что выложили. большое спасибо) ещё бы на раздаче кого поймать

У кого то получилось запустить эту игры с русификатором?

8toni8 писал(а):

У кого то получилось запустить эту игры с русификатором?
всё получилось, папка мод в клиенте есть и туда все необходимые файлы кидаются.

Товарищи, раздайте пожалуйстса, обещаю сам с раздачи не уйду

Автору уважение и благодарность!!! линукс наше все)))
надеюсь и дальше продолжит обновлять раздаче, с выходом новых версий

Автор! Огромное тебе спасибо за эту раздачу.
Я недавно пересел c винды на хубунту, логично возникли проблемы с запуском. Кто-нибудь может подсказать, как это исправить?
Запуск /.start.sh (предварительно я поставил либы, которых ему не хватало)скрытый текстmclosos@mclobuntu:~/Games/CK2$ sudo ./start.sh
Ошибка сегментирования (сделан дамп памяти)
В gdb:скрытый текст(gdb) run
Starting program: /home/mclosos/Games/CK2/ck2
[Thread debugging using libthread_db enabled]
Using host libthread_db library "/lib/x86_64-linux-gnu/libthread_db.so.1".
Program received signal SIGSEGV, Segmentation fault.
0x00000000 in ?? ()
Заранее спасибо за помощь.

Treml
ждать ли обновления раздачи? Сегодня вышел новый длс.

включите новый DLC, и версия 2.6.1

McLosos писал(а):

Автор! Огромное тебе спасибо за эту раздачу.
Я недавно пересел c винды на хубунту, логично возникли проблемы с запуском. Кто-нибудь может подсказать, как это исправить?
Запуск /.start.sh (предварительно я поставил либы, которых ему не хватало)скрытый текстmclosos@mclobuntu:~/Games/CK2$ sudo ./start.sh
Ошибка сегментирования (сделан дамп памяти)
В gdb:скрытый текст(gdb) run
Starting program: /home/mclosos/Games/CK2/ck2
[Thread debugging using libthread_db enabled]
Using host libthread_db library "/lib/x86_64-linux-gnu/libthread_db.so.1".
Program received signal SIGSEGV, Segmentation fault.
0x00000000 in ?? ()
Заранее спасибо за помощь.
Аналогичная проблема

Treml писал(а):

Сегодня-завтра обновлю.
Благодарность за новое обновление

Treml писал(а):

Никогда не запускайте игры через sudo, что я еще могу сказать?И да, обновлено до 2.6.1
С этой обновкой решилась проблема
Спасибо!

Подскажите что с этим делать?скрытый текст./ck2: error while loading shared libraries: libGLU.so.1: cannot open shared object file: No such file or directory

bhairava777 писал(а):

Подскажите что с этим делать?скрытый текст./ck2: error while loading shared libraries: libGLU.so.1: cannot open shared object file: No such file or directory

Не хватает либы libGLU.so.1. Надо, чтобы хватало. В арче она находится в lib32-glu. В FAQ есть ответ на этот вопрос с подробным решением для убунт. Твоего дистрибутива мы не знаем, но в общем случае решение проблемы сводится к установке пакета, содержащего недостающую библиотеку. В данном случае (поскольку x86, а не amd64), её 32-битную версию.

На fedora 24 x64 сразу не запустилось. Ругалось на версию libcrypto.so и libssl.so - в системе 1.0.2h, а игре нужно 1.0.0.
После копирования в папку игры файлов libcrypto.so.1.0.0 libssl.so.1.0.0 из http://archive.ubuntu.com/ubuntu/pool/main/o/openssl/libssl1.0.0_1.0.2g-1ubuntu8_i386.deb (с файлами из rmp для fedora 13 сегфолтилась) игра запустилась. Но это не сильно помогло, поскольку в игре не отображается земля в режиме географии и портреты, хотя тут я склонен грешить на драйвер radeon (xorg-x11-drv-ati) для AMD видеокарты.-После обновления системы (fedora + updates) все заработало.

очень ищу версию под МАК, подскажите где скачать? Буду очень благодарен за подсказку.

весь интернет перерыл, но так и не нашел ответа: почему у меня не запускаются файлы .sh? дает следующую ошибку ./ck2: error while loading shared libraries: libGLU.so.1: cannot open shared object file: No such file or directory
есть ли здесь кто нибудь, кому известно решение?

Dima-666, в FAQ есть

Очень ждём версию 2.6.2

bhairava777 писал(а):

Очень ждём версию 2.6.2
Она ещё не вышла. Есть бета версия 2.6.2, но она оказалась настолько забагованной что третью неделю починить не могут.

MishaKrylov писал(а):

bhairava777 писал(а):
Очень ждём версию 2.6.2
Она ещё не вышла.
Ну так потому и ждём

Наконец-то вышел новый патч 2.6.2! Восторг!

Дождались!

Похожн ОП пропал, может кто нить другой может обновить торрент до новой версии?

Товарищи, в консоли выдает вот что. Aspire-M3450:~$ /home/aleksey/Games/CK2/start.sh
Ошибка сегментирования (сделан дамп памяти) Эта уже куда копать? Xubuntu 16.04

Цитата:Товарищи, в консоли выдает вот что. Aspire-M3450:~$ /home/aleksey/Games/CK2/start.sh
Ошибка сегментирования (сделан дамп памяти) Эта уже куда копать? Xubuntu 16.04
Tа же ошибка, решения не нашёл

А у меня почему-то зависает либо на экране выбра эпохи, либо после, причём курсор двигается, но выбрать ничего нельзя (Xubuntu 16.04).

Большая просьба обновить до 2.6.3!
https://forum.paradoxplaza.com/forum/index.php?threads/crusader-kings-2-mini-patc...-reports.984465/
В текущей версии не работает улучшение Tribal графства до Feudal, что является довольно важным моментом в игре.

Цитата:Большая просьба обновить до 2.6.3!
Не, не, обождите! В 2,6,3 в линукс версии отсутствует проигрывание музыки. На след. неделе обещают починить.

MishaKrylov писал(а):

Цитата:Большая просьба обновить до 2.6.3!
На след. неделе обещают починить.
Говорят, что починили.

ап теме

Кум, спасибо тебе за наше счастливое детство!

Спасибо,уверен будет красивый сборник.Твои чилауты, Андрей, у меня лучшее что есть!!!

Класс...стоит послушать!!!

Andrey Faustov
примного благодарен тебе Андрей за такую изюмительную музоньку, продолжай творить такое восхищение в таком же духе

Andrey Faustov
С возвращением из отпуска и.. спасибо!

Скачал когда-то первый выпуск, дошли руки послушать, не очень понравилось, но спасибо за труды. Послушаю остальные, надеюсь, там контент придется мне больше по вкусу.

StradiV
сегодня был релиз четвертого выпуска. в ближайшее время он появится и здесь - послушайте его обязательно. На мой вкус, он несколько контрастирует с первыми тремя.

Andrey Faustov писал(а):Добавлен 4-й выпуск. Просьба перекачать торрент
Уважаемый Andrey Faustov, это нечто суперское!!!
Продолжение в студию, дорогой!!!

если кто видит . прошу дораздайте, дедушке в дорогу завтра - нужно музыки позитивной)

Nikita-32
постоянно на раздаче.

Спасибо за отличную подборку!
Андрей, а раздачи во flac не планируете делать?

Добавлен 5-й выпуск. Просьба перекачать торрент

шеф, у тебя великолепный музыкальный вкус в этом жанре. Положил эту музыку в папочку My Favorite
отдельное спасибо за .cue

Спасибо! 5-ый еще не слушал, но судя по предыдущим не сомневаюсь, что очень хорошая подборка! Всем качать, долго подобное искал.

Need seed!!! Кстати, а с седьмым что, только с народа?

Понял, большое спасибо за музыку

Прекрасная подборка музыки. Спасибо за раздачу!!!!

Не ожидал! Качественно, красиво, мелодично. На высоте! Спасибо Теска!

Andrey Faustov
Нужно в название папки добавить год выхода релизов и перезалить торрент.

очень круто!!! что можете еще порекомендовать такого типа?

Мне очень и очень нравится. Спасибо за музыку. Может flac появится, а то mp3 не дает желаемого звучания на хорошей акустике?

archi026 писал(а):

очень круто!!! что можете еще порекомендовать такого типа?
http://chilloungestation.com
Gaiver1987
флака вряд-ли дождемся по нескольким причинам.
одна из которых заключается в том, что данные миксы, как не крути - радиошоу, а флак на радио - это практически нонсенс.
Фаустов поправит мну если ошибаюсь.
кстати, любопытства ради, какая у Вас акустика и активка перед ней? хвастайтесь

А чойта не предупредили, что названия файлов поменялись?

Музыка просто отличная!!!СПАСИБО ОГРОМНОЕ ЗА ПРОДЕЛАННУЮ РАБОТУ!!!МОЛОДЕЦ!!!

Allineer писал(а):

archi026 писал(а):
очень круто!!! что можете еще порекомендовать такого типа?
http://chilloungestation.com
Gaiver1987
флака вряд-ли дождемся по нескольким причинам.
одна из которых заключается в том, что данные миксы, как не крути - радиошоу, а флак на радио - это практически нонсенс.
Фаустов поправит мну если ошибаюсь.
кстати, любопытства ради, какая у Вас акустика и активка перед ней? хвастайтесь
Спасибо за ответ. Жаль что с флаком пролетаем. Акустика не космос, но дает почувствовать хорошее качество. У меня звуковая Asus Xonar D1, Microlab 7c(модернизированные саморучно) плюс сабик Yamaha(название не могу сказать, не знаю:)) А еще у меня наушники Sennheiser hd 448, которые дают звук как по мне даже лучший, чем моя большая акустика, жаль не с той же громкостью:)))

Цитата:А еще у меня наушники Sennheiser hd 448
даа, слышал я эти ушки и даже задумывался о покупке, но дома они не актуальны, а на шее вне дома носить - меня за ними видно не будет

Allineer писал(а):

Цитата:А еще у меня наушники Sennheiser hd 448
даа, слышал я эти ушки и даже задумывался о покупке, но дома они не актуальны, а на шее вне дома носить - меня за ними видно не будет
вы такой маленький?

Andrey Faustov писал(а):

andry_9876
прости тезка, впредь буду предупреждать если что.
Заранее спасибо
Вопрос, а сборники именно Chillounge Station планируется выкладывать в качестве 320 kbps? Или есть только то, что на народе?

Спасибо,  ))

Гоняю в машине первый альбом уже неделю, супер ребята!!!

Gaiver1987 писал(а):

вы такой маленький?
я нифига не маленький - Фаустов подтвердит, но уши большие для меня и это доставляет определенные неудобства. когда они на шее висят - смотреть налево-направо приходится поворачиваясь всем корпусом)

Я перекачал почти весь Чилаут с инета. Вот лучше чем этот сборник я не нашел.

Скачал, послушал и мне очень понравилось! Молодец Andrey Faustov!!!
Классный чилаут! Послушал четыре сборника просто в восторге!

за 14 Спасибо!

'Perhaps'..!!..?????...'It is' the most beautiful music in the world. Love your music selection. Congratulation and thanks for sharing it. God bless you.
And thanks for the .CUE files. They are really helpful.

Это нормально, что я не могу скачать отдельно микс??? ... Пишет Ошибка! Запрошенную операцию нельзя выполнить для файла с открытой пользователем сопоставленной секцией.

спасибо за труды. отмечу, что есть похожая работа в авторской программе "На ночь глядя" на радио 105,5FM от сахалинского диджея Василий Jam http://promodj.com/vasilyjam

Спасибо за творчество!!!

Не скачивается torrent файл. Битый какойто

dnomЦитата:.torrent скачан: 251 раз
все в порядке.

Классная музыка. Жаль что нет во флаке. В последнее время отвык от mp3. На хорошей акустике хочется наслаждаться максимальным качеством.

Спасибо,красивая музыка!

АНДРЕЙ, продолжайте в том же духе!!!!
Необыкновенные касты, музыка, песни!!! Все на высоте!!! Не теряйте вдохновения и продолжайте радовать нас "пожалуй самой лучшей музыкой на свете"

Андрей мне очень понравилась музычка,спасибо за творчество и за раздачу его в народ Творческих успехов дальнейших желаю !

заслушаем обязательно!

5+ спасибо

))

Кум, почему в первом сообщении для эпизодов 17, 13, 10, 09 обложки фуфловыя? ><
Но за миксы очередное спасибо

Андрей, огромное вам спасибо за творчество!!! С нетерпением жду каждого выпуска!

Великолепные выпуски, очень качественная подборка.
Огромное спасибо Андрею, за отличное настроение!

и снова большое спасибо, жду следующего с нетерпением!!

класс!

Андрей, творите!!! И всего Вам наилучшего!!!

нет куе

да нужны, для разделения треков..........

Цитата:Вам вообще нужны куй файлы?
Лентяй...
Кум, когда создаешь торрент, ставь плиз галочку "упорядочить файлы".
ЗЫ: СПА-СИ-БО!!! за наше счастливое деццтво.

спасибо, душа отдыхает

Andrey Faustov спасибо большое. Отличные сборники.Цитата:И да, ребят, вопрос.. Вам вообще нужны куй файлы?
Мне не особо. Есть - хорошо, нет - ну и ладно!

молодчина!

кстати в сете Релаксация, как называются первая и вторая композиции? спс

RRFarFarFar
откуда узнали о "Релаксации" и откуда скачали?Цитата:Вам вообще нужны куй файлы?
Нам нужны куй-файлы как минимум для того, чтобы спустя годы и месяцы ответить тебе на твой любимый вопрос:
"А ты не помнишь, какие треки были в миксе таком-то, эпизоде таком-то???"
Фаустов!!! Поправь IDv3-теги, начиная с #26!!!

Andrey Faustov писал(а):

RRFarFarFar
01 - Michael Hoppe, Martin Tillman, Tim Wheater - The Waiting
02 - Michael Hoppe And Tim Wheater - Between Cave And Cloud
На здоровье!
Спасибо!

Спасибо Вам, Андрей.

Andrey Faustov
у 33 выпуска куе нет..

Самые красивые мелодии! Спасибо!

о,сам фаустов тут) дружище - от души)))

Вот это да.. скачал не прогадал.
Не знаю, чем не понравился первый выпуск. Вероятно, человек не любит чилл. А это достойная подборка.
Спасибо!

Раздайте 37 выпуск?
Сидов как то маловато тут, я раздаю круглосуточно

В Andrey Faustov - Chillout Coast # 33.cue 11-й трек не проигрывается

Тоже на раздаче почти круглые сутки. И качают хорошо. Еще бы оставались.
Meerrauber угу. Но я и без cue в основном слушаю. Мне не важно.
Автору еще раз огромное спасибо.

607й писал(а):

Meerrauber угу. Но я и без cue в основном слушаю. Мне не важно.
А я бывает повторно понравившийся трек гоняю, для меня важно. Ну и косяк, есть косяк.
А вообще огромное спасибо автору.

Andrey Faustov писал(а):

Meerrauber
Поправил - http://www44.zippyshare.com/v/39063211/file.html
Когда буду добавлять 38-1 выпуск, заменю куй в раздаче.
Спасибо за оперативность

отличные подборки, большое спасибо автору и раздающим!!!

Пожалуй лучшее радио шоу на сегодняшний день...

Andrey Faustov писал(а):

С Новым Годом друзья! Желаю Вам добра, и благосклонности судьбы!
Вашему вниманию 38-й выпуск подкаста!
С новым годом Андрей! Творческих успехов тебе и в этом году!!! Спасибо тебе за труд!

АААА новые выпуски усцусь щас. Аффтару респект, во флешке с фаустовым в машине уже "дырка".....

Слушаю дома... слушаю на работе... слушаю в дороге...
Каждый раз новые впечатления, вот уже спустя две недели. Это пожалуй наилучшая музыка для души и тела.
Положительные эмоции и хорошее настроение гарантировано. Очень гармоничная музыка.
Спасибо большое!

если автору раздачи интересно, то сообщаю - себе после выборки оставил на 338 Мб из 6 Гигов
Некоторые темы уже надоели, многие просто не нравятся
даю список оставленного
Blank & Jones - Andrey Faustov - Chillout Coast # 15 - Coming Home - 01 - 2012 - -
Blank & Jones - Andrey Faustov - Chillout Coast # 14 - From N'ney With Love (Original Mix) - 01 - 2012 - Electronica -
Blank & Jones - Andrey Faustov - Chillout Coast # 28 - Smooth - 02 - 2013 - Electronica -
Michael E - Andrey Faustov - Chillout Coast # 29 - There's Something Out ThereEsberg Port - 03 - 2013 - -
- Cocogroove - Andrey Faustov - Chillout Coast # 15 - Martini royale (Kiss Me James Mix) - 04 - 2012 - -
Blank & Jones - Andrey Faustov - Chillout Coast # 7 - Nuits Blanches - 04 - 2012 - -
Justin Le Mar - Andrey Faustov - Chillout Coast # 19 - Breakwater (Original Mix) - 04 - 2013 - -
Rue Du Soleil - Andrey Faustov - Chillout Coast # 37 - Always Mine - 04 - 2013 - -
Lovers Lane - Andrey Faustov - Chillout Coast # 17 - Island Memories (Original Mix) - 05 - 2013 - Electronica -
Vargo - Andrey Faustov - Chillout Coast # 14 - Silence [Original Mix] - 05 - 2012 - -
Karen Gibson Roc - Andrey Faustov - Chillout Coast # 33 - Painted Room - 06 - 2013 - -
Pradesh Singh - Andrey Faustov - Chillout Coast # 36 - Bali Ways - 06 - 2013 - -
Michael E - Andrey Faustov - Chillout Coast # 18 - Aha - 07 - 2013 - -
Naomi - Andrey Faustov - Chillout Coast # 31 - Three Stars No Match (Original Mix) - 07 - 2013 - -
Blank & Jones - Andrey Faustov - Chillout Coast # 14 - Rumble - 08 - 2012 - -
Elkeland - Andrey Faustov - Chillout Coast # 13 - Hallo - 08 - 2012 - -
Nativa - Andrey Faustov - Chill Out Coast (Chill Out Station) # 1 - Hi Baby (Original Mix) - 08 - 2012 - -
Jan Vayne - Andrey Faustov - Chillout Coast # 21 - Canon Ball (Fred Baker Chill Mix) - 09 - 2013 - - http://promodj.com/andreyfaustov
Max Melvin - Andrey Faustov - Chillout Coast # 30 - Sand (reprise) - 09 - 2013 - -
Michael Hornstein - Andrey Faustov - Chillout Coast # 39 - Inner Waves - 09 - 2014 - -
Nikonn - Andrey Faustov - Chillout Coast # 14 - Sunday - 09 - 2012 - -
Bliss - Andrey Faustov - Chillout Coast # 39 - Songs Foe Olabi - 10 - 2014 - -
Tenishia with Kirsty Hawkshaw - Andrey Faustov - Chillout Coast # 24 - Falling (Original Mix) - 10 - 2013 - -
Phaeleh - Andrey Faustov - Chillout Coast # 29 - Journey - 11 - 2013 - -
Freemasons (Feat. Amanda Wilson) - Andrey Faustov - Chillout Coast # 28 - Love On My Mind (Chill Out Mix) - 12 - 2013 - -
Phaeleh - Andrey Faustov - Chillout Coast # 14 - Lounge (Original Mix) - 12 - 2012 - -
Lene Marlin - Andrey Faustov - Chillout Coast # 36 - Faces - 13 - 2013 - -
Blank & Jones - Andrey Faustov - Chillout Coast # 36 - Roots Nothing Can Come Between Us - 14 - 2013 - -
Electus - Andrey Faustov - Chillout Coast # 32 - Seize The Day - 14 - 2013 - -
ПС. к чему я это писал, вы из моей сборки отберите свои лучшие для 40 выпуска
Будет интересно посмотреть на результат

Andrey Faustov
Спасибо за такое замечательное радиошоу! Скачал давно, а послушать удалось не давно. Давно не слышал сетов, которые хочется слушать с первой и до последней минуты. Обычно слушаю проматывая и выбирая только лучшее.
Хороший у вас "придирчивый вкус", лично для меня прямо в точку! Творческих успехов вам!

Друзья не поверите - наш ген. директор купил в офис акустику 5.1 (организация занимается строительством) - и дал на флешке сетов 7 из вышепредставленных в качестве муз. фона. Человек 1971 года рождения ! )
Подборки конечно шикарны. На психике положительно сказываются )
Хочется высказать пожелание по поводу подборок - реже , Андрей, ещё реже ! ) Самых прекрасных вам находок. "...А в общем: все редкое - для редких."

Прослушал уже 24 выпуска - насколько могут совпадать вкусы у разных незнакомых между собой людей! Спасибо огромное!

Андрей, спасибо за прекрасную музыку. Не планируешь lossless выложить?

Отлично! Благодарю! Действительно много всего интересного!

Подскажите, чем отличаются эти сборники от сборников Chillout station?

Andrey Faustov
Спасибо. У вас отличный вкус к музыке, много нового для себя открыл

Andrey Faustov
Спасибо!

Всем привет! Ребята встаньте пожалуйста на раздачу, скорости совсем нет(( Автору огромное спасибо, наслождаюсь вашими прошлыми выпусками!

Всем привет. Я вернулся, снова сутками на раздаче до 8-го мая.

Andrey Faustov
Спасибо огромное ! Шикарная музыка! Очень благодарен!

Спасибо как раз то что искал ..
Музыка под которую можно творить и отдыхать

Andrey Faustov писал(а):СЕГОДНЯ ПОДКАСТУ 2 ГОДА!
Поздравляю с юбилеем.

спасибо огромное! наслаждаюсь вашей музыкой в машине!!! хочется ездить весь день !!! ))) Ирина

Урааа!!!

Потреково не проигрывается и месяц в наименовании, походу, перепутали ChillOut Coast #52 (14.06.14)

Andrey Faustov писал(а):

Meerrauber
Спасибо. Просьба перекачать файл.
Да это Вам Спасибо за великолепную музыку.
только закачка на 4 Mb остановилась...

Andrey Faustov писал(а):

Ждем кума.
Индексирую торрент уже

Потреково всё равно не проигрывает

Andrey Faustov писал(а):

Meerrauber
52-й? ммм... у меня проигрывает.
Общий трек играет(тот что 59.28), а вот на отдельные треки ругается.
Использую foobar2000, пишет Unable to open item for playback (Unsupported file format).
С предыдущими раздачами проблем нет.

Andrey Faustov писал(а):

Я слушаю АИМПом, попробуйте им, вот этот куй - http://www29.zippyshare.com/v/38367181/file.html
Этот куй тоже не работает, странно, остальные-то нормально проигрываются, на аимп переходить как-то не хочется

SUPER SBORNIK! BLAGODARU!

Случайно на работе услышал выпуск, очень понравилось. Спасибо!!!

Andrey Faustov писал(а):

53.
Спасибо.Meerrauber писал(а):
Потреково всё равно не проигрывает
Откройте куй блокнотом, в четвертой строке поменяйте:
FILE "Andrey Faustov - Chillout Coast #052" MP3
на
FILE "Andrey Faustov - Chillout Coast #052.mp3" MP3
Закройте блокнот, сохранив изменения.
Мне помогло для потрековой конвертации в плеер, до этого тоже ошибка выскакивала

Meerrauber писал(а):

Потреково всё равно не проигрывает
Откройте куй блокнотом, в четвертой строке поменяйте:
FILE "Andrey Faustov - Chillout Coast #052" MP3
на
FILE "Andrey Faustov - Chillout Coast #052.mp3" MP3
Спасибо. Помогло. Смотрел другие куи, действительно там указано расширение.

Большое спасибо за сборники, слушаю второй год.
Перешел на железный плеер, а он теги как AIMP не кушеат.
Вопрос не в тему, чем потреково mp3 разбить, чтобы без переконвертации?

Слушаю. Нравится. За *.cue благодарю!
P.s Кто знает релизы в подобном форм факторе, с музыкой поэнергичней?

Благодарю, будем смотреть что там ваяют!

Гранд мерси от благодарного поклонника (тески, кстати - нас, Андреев, как берёз) за чудесную музыку на многие вечера впереёд =)

Новые выпуски добавьте

На 56-м вступление интересное было, хорошая задумка👍😊спасибо!

Andrey Faustov
отлично...!!!

Andrey Faustov
спасибо, Друг...

Слегка выпал из из темы ... но сейчас послушал всё что пропустил, как всегда шикарно!!! Но сначала очень напрягли треки с шипением и как бы переключением по радиостанциям....сразу вспомнился случай, когда при переразбивке разделов жёсткого диска, что-то сглючило и многие треки смешались...слушаешь Арию и тут кусок из Rammstein

А так это Диджей, зашел в раздел удивился что много музыкантов с Украины и удивился откуда у нас столько талантов... думал что это авторы типа Дидюли...

На главной странице список песен ChillOut Coast #60 неверно указан (дублируется с 59-м выпуском)

А аудиофайл то, 60-й?
Да ..

Андрей спасибо, понравилось, талант и вкус есть )))

Андрей
Спасибо за великолепные миксы
У Вас действительно талант.

спасибо за такую красивую музыку. теперь можно и полететь...
Andrey Faustov
теперь можно и полететь. СПАСИБО Andrey .

Офигенно!!! Классно!!!
Музыка объединяет людей!!! Русские и украинцы братья!!!

Спасибо!!!

Kego писал(а):

Офигенно!!! Классно!!!
Музыка объединяет людей!!! Русские и украинцы братья!!!
Абсолютно согласен

Andrey Faustov
спасибо за добавление нового материала...

Андрей,
Спасибо Вам за музыку, выши альбомы я заслушал до дыр.
Всегда жду новых.
Вы создаетн прекрастное настроение!
СПАСИБО Вам!!!

Цитата:Полный источник: был сегодня

10 из 10.
Полное совпадение с моим вкусом

Как всегда великолепно!!!
В альбоме 64 трек 14 не проигрывается, плеер не определяет длину трека это только у меня?

Meerrauber
только у вас...

Eklat писал(а):

Meerrauber
только у вас...
Похоже cue не корректный, 15 трек начинается раньше 14-го и из-за этого проблема:
TRACK 13 AUDIO
PERFORMER "Afterlife"
TITLE "Home (feat. Chris Coco)"
INDEX 01 54:30:00
TRACK 14 AUDIO
PERFORMER "Balligomingo"
TITLE "Sweet Allure"
INDEX 01 59:03:00
TRACK 15 AUDIO
PERFORMER "Steen Thottrup"
TITLE "Greetings From Abroad"
INDEX 01 53:03:00

Andrey Faustov
Спасибо за оперативность. Музыка выше всяких похвал!!!

Андрей, больвом шое Вам спасибо! Музыка шикарная, слушаю все ваши выпуски бесконечным количеством раз...

Андрей,всё, что я могу сказать, услышав Вашу музыку..... ОГРОМНОЕ СПАСИБО!!!!

о...! спасибо...!

Andrey Faustov
в названиях файлов укажите дату трансляции/записи, в формате ДД.ММ.ГГГГ. или ГГГГ.ММ.ДД.

krivenchenko
вы задрали!!!

Allineer
И Вас с праздником Пасхи и Днем космонавтики

krivenchenko
Спасибо, вас так же.

Кум, я 136 файлов руками переименовал, а еще 68 обложек только предстоит.
Имею право и психануть маленько =\

Allineer
так а на обложке зачем дату лепить то?

krivenchenko
Порядка ради.

Я про имена файлов, кум.
На самих обложках даты перестали ставить когда релизы стали плавающими по определенным причинам.

пох на такие мелочи... главное подборка...

krivenchenko
психанул. остыл. был не прав. сорри.

Allineer
та вроде все ок и было)

После переименования - mp3 играют, а вот cue если использовать, то нет. Использую foobar2000
Выдаёт плеер:
Unable to open item for playback (Unsupported file format):
"D:\Music\Andrey Faustov - Chillout Coast [2012-2015]\Andrey Faustov - Chillout Coast #068 (09.04.2015).cue" / index: 1

Andrey Faustov писал(а):

Это странно.
Вы сами, в ручную переименовывали куй файлы? Если да, то их надо еще "внутри" переименовывать. Скачайте их с раздачи.
Как раз из раздачи и не работают

Andrey Faustov писал(а):

Хм. Давайте проведем эксперимент, скачайте этот архив и скажите, работает ли у вас куй. https://yadi.sk/d/UojTvBLlg5bpM
А есть еще у кого-то такая проблема?
не, не работает....со старыми то всё отлично(с теми что у меня уже были) а вот новые(начиная с первого выпуска) что-то никак не хотят работать

OS X, VOX - работает.

Andrey Faustov
Разобрался, в ваших новых cue, есть строчка
FILE "Andrey Faustov - Chillout Coast #068 (09.04.2015)" MP3
а в старых есть указание на расширение файла
FILE "Andrey Faustov - Chillout Coast #068 (09.04.2015).mp3" MP3
В общем добавил .mp3 и всё заработало

Слушаю 70-й микс уже четвертый или пятый раз и не перестаю удивляться: вроде и знакомы давно, и уже переслушал огромное количество миксов автора, начиная с "Remember brother" и "Ballearic Chill Night", а ведь все-равно умудряется удивить и порадовать.
В миксе много моего любимого саксофона. Много мягких и нежных мелодий и треков в целом.
Треки сведены воедино и настолько бесшовно, что, зная треклист, ловишь себя на мысли, что, вроде как, треков не хватает - по два-три на одном дыхании.
Спасибо тебе, мой родной человек. Твои такие подборки-миксы треков, на мой взгляд, несут чилл в массы, открывают чилл людям, а ведь чилл -- музыка нежная и добрая, чувственная, но своенравная. Нашему миру нужно больше добра, нежности и откровенной чувственности и безумно круто, когда это все люди начинают воспринимать через звук, музыку.
Каждый из тех, кто подсел на Coast'ы -- и я это знаю -- начинает заглядывать внутрь себя и через призму звука видит себя лучше и добрее, несет (сеет, что ли?) это добро окружающим.
С 70-ти-выпусковым юбилеем, который совпадает чудесным образом с 70-й годовщиной Великой Победы и большое тебе спасибо, брат.

Полностью согласен!
С Праздником!Allineer писал(а):

Слушаю 70-й микс уже четвертый или пятый раз и не перестаю удивляться: вроде и знакомы давно, и уже переслушал огромное количество миксов автора, начиная с "Remember brother" и "Ballearic Chill Night", а ведь все-равно умудряется удивить и порадовать.
В миксе много моего любимого саксофона. Много мягких и нежных мелодий и треков в целом.
Треки сведены воедино и настолько бесшовно, что, зная треклист, ловишь себя на мысли, что, вроде как, треков не хватает - по два-три на одном дыхании.
Спасибо тебе, мой родной человек. Твои такие подборки-миксы треков, на мой взгляд, несут чилл в массы, открывают чилл людям, а ведь чилл -- музыка нежная и добрая, чувственная, но своенравная. Нашему миру нужно больше добра, нежности и откровенной чувственности и безумно круто, когда это все люди начинают воспринимать через звук, музыку.
Каждый из тех, кто подсел на Coast'ы -- и я это знаю -- начинает заглядывать внутрь себя и через призму звука видит себя лучше и добрее, несет (сеет, что ли?) это добро окружающим.
С 70-ти-выпусковым юбилеем, который совпадает чудесным образом с 70-й годовщиной Великой Победы и большое тебе спасибо, брат.

Спасибо еще раз за сборники, однако перехешировал торрент, и обнаружил что у всех файлов имена поменялись, пришлось руками переименовывать 120 файлов... что бы не качать 10джи снова...

спасибо!

Будьте добреньки! Посоветуйте, пожалуйста из этой прекрасной музыки, что-то плавное и медленное специально для йоги . Благодарю сердеШно!

Andrey Faustov писал(а):

Забыл. Маленькая дата. Вчера подкасту стукнуло три года:)
Поздравляю! Удачи Вам!!!

Андрей, я пофиксил cue,что бы открывались без запроса на поиск файла, забирать тут, https://drive.google.com/open?id=0B9tBL6bGkeeWNGxBRno2V3FDMk0&authuser=0, можешь их добавить в раздачу.

станьте кто нибудь на раздачу пожалуйста!!!!!!!

Андрей ты Супер!!! Спасибо за замечательные сборники!!!

Очень красивая подборка, открыл для себя много интересного, спасибо!

Спасибо!
Качаю, всегда на раздаче.

Спасибо за Ваш труд,замечательная подборка музыки.Продолжайте в том же духе.

Шикарная музыка! Андрей, большое Вам спасибо! Ваши подкасты слушают даже на Чукотке!

Фантастика!!
Благодарность от всего сердца!

Андрей, спасибо тебе огромное!
... не слушать музыку, а слышать ее!
Считаю, ты добился поставленной цели!
Успехов и Отличного настроения!

Андрей, все ваши альбомы переслушал по десять раз.
Всегда жду с нетерпением новые...
Спасибо вам!!!
PS
Считаю страна должна знать своих героев))
Если вас не затруднить, напишите, пожалуйста, немного информации на lastfm о себе...
Еще раз спасибо вам, вы делаете настроение!!!

шикарно...

Шикарный выпуск, огромное спасибо! Андрей, пожалуйста поправьте файлы .cue, они не работают, не хватает расширения .mp3 после названия выпуска внутри файла.

подтверждаю, куй не работает

Андрей, в 69-ом выпуске что-то не так с CUE - нет разбивки по трекам.
Сможешь исправить?
Спасибо!

отличный выпуск... спасибо...

Andrey Faustov
Спасибо!
Теперь всё работает.
Я тоже использую только AIMP

Не, никак, фубар2000 (он ИМХО лучший) не воспринимает! имя в куе не соответствует имени мп3-шки по факту. Да, так оно и есть, а фубар не хочет ассоциировать, проверил переименовав мп3 в куйное имя, так все работает. Очень благодарен Вам за труды! зы/ было бы неплохо, чтобы куй работал на всех плеерах
зы2/ вроде начиная с 62-го имена уже как положено

Andrey Faustov
Большое спасибо за отличную музыку!

Отличная музыка! Андрей, спасибо!
Но: в 79 выпуске не работает cue при прослушивании в foobar2000 , необходимо добавлять расширение после названия выпуска внутри cue файла после скобок.

Andrey Faustov
ок...

Музыка действительно создает настроение, ни чего лучшего я за последние несколько лет не слышал. Все мои друзья уже обеспеченны данным сборником и с большой радостью его прослушивают!!!
РЕСПЕКТ и УВАЖУХА АВТОРУ)))
С нетерпением ждем новых композиций!!!
PS
Творчество данного исполнителя вынудило написать мой первый комментарий за 3 года, после регистрации на рутрекере!

блин, опять не всё работает, вот Андрей, трохан поредактировал все куя, были различные мелочи, но железный ящик их не любит) https://yadi.sk/d/KCYXTMy_je9RQ , и еще, на 33-ем сборнике, 11-ая композиция Bliss - Some выпадает из фубара, видимо границы в куе неверные, ну я горевать об этом не стал... а остальное - все пучком ! Удачи и здравия !

Addictman
он исправит при добавлении следующего выпуска...
а в 33-м куе надо время в 12-м треке подправить...40 на 49:скрытый текстPERFORMER "Andrey Faustov"
TITLE "Andrey Faustov - Chillout Coast # 33"
REM generated by PROMODJ for http://promodj.com/andreyfaustov
FILE "Andrey Faustov - Chillout Coast #033 (30.09.2013).mp3" MP3
TRACK 01 AUDIO
PERFORMER "Emika"
TITLE "Wicked Game"
INDEX 01 0:00:00
TRACK 02 AUDIO
PERFORMER "Kelly Sweet"
TITLE "We Are One"
INDEX 01 3:44:00
TRACK 03 AUDIO
PERFORMER "Almadrava"
TITLE "Waves"
INDEX 01 7:02:00
TRACK 04 AUDIO
PERFORMER "Steen Thottrup"
TITLE "El Alba"
INDEX 01 11:34:00
TRACK 05 AUDIO
PERFORMER "Elmara"
TITLE "Training"
INDEX 01 16:57:00
TRACK 06 AUDIO
PERFORMER "Karen Gibson Roc"
TITLE "Painted Room"
INDEX 01 21:05:00
TRACK 07 AUDIO
PERFORMER "Nera & Felix"
TITLE "Con Amor"
INDEX 01 25:11:00
TRACK 08 AUDIO
PERFORMER "Dj Tiesto"
TITLE "Close To You (Feat. Jan Johnston)"
INDEX 01 30:22:00
TRACK 09 AUDIO
PERFORMER "Gary B"
TITLE "Set Me Free"
INDEX 01 35:06:00
TRACK 10 AUDIO
PERFORMER "Triangle Sun"
TITLE "Beautiful"
INDEX 01 40:20:00
TRACK 11 AUDIO
PERFORMER "Bliss"
TITLE "Some"
INDEX 01 44:50:00
TRACK 12 AUDIO
PERFORMER "Nori, Anth M"
TITLE "Passion (Original Mix)"
INDEX 01 49:50:00
TRACK 13 AUDIO
PERFORMER "Telepopmusik"
TITLE "Breathe (MyMind Remix)"
INDEX 01 53:45:00
TRACK 14 AUDIO
PERFORMER "Facing Jinx, Philth & Wreckless feat. Formik"
TITLE "Now Or Never"
INDEX 01 56:43:00

Addictman, Eklat
Сравнили, проверили. Действительно косяки.
Спасибо за помощь, в след. раздаче будут обновлены.

Eklat
а я поленился в 33-ий заглянуть, а там аж 14 композиций, спасибо !

да лан... )))

ух ты... спасибо, Андрей...

Andrey Faustov
эх, жаль...((

Andrey Faustov
вот это другое... )) спасибо за надежду...

Дорого времени суток! Спасибо за раздачу. Ээээ, вот бы еще кто раздал... Хочется ознакомиться с творчеством Андрея.

Очень хорошо.Красавец!ЛУЧШЕ ТЕБЯ, Я НЕ ЗНАЮ

Музычка Класс!!! Благодарю!!!
И Всех С Наступающим Новым Годом!!!

Нафига мне слушать в начале каждого трека одну и ту же ересь ? Я музыку хочу слушать, а не рекламу и т.п.
Скинул всё фтопку !
Хотя музыка хорошая, жаль

sibprom писал(а):

Я музыку хочу слушать, а не рекламу и т.п.
Скинул всё фтопку !
Телевизор ты тоже не смотришь, и в кинотеатр не ходишь, и ФМ-радио не слушаешь, и журналы не читаешь...бедняга.
А как же тяжело тебе приходится в магазинах-торговых центрах, супермаркетах и даже в качалке, ууу.
Слуууушай, а как ты рекламу на рутрекер терпишь? Она же тут на каждой странице!

sibprom
левая какая то претензия...
Andrey Faustov
Спасибо, Андрей, за подарок к Новому Году...)))
С Наступающим тебя..!))

Andrey Faustov писал(а):

Eklat у меня есть идея о новом подкасте, отдохну может немного и думаю, запущу новый, только в другом направлении, не чилл.
... Андрей, а какое это будет направление ?
Ещё раз благодарю за труды!
Ты Супер!
С Новым Годом!
Здоровья и Счастья!

Опечатка:
ChillOut Coast #85 (25.12.15)
ChillOut Coast #85 (15.01.16)

Andrey Faustov очень жаль, надеюсь твои новые начинания будут радовать не меньше

Андрей, огромное Вам спасибо! Отличная работа! Очень доволен что смог прикоснуться к Вашему творчеству и получил огромное удовольствие! Обожаю Chillout! Андрей, доведите Ваш сборник хотя бы до логического 100-ого выпуска!

Подскажите что скачать выборочно в машину! Все качать много, спасибо!

korablow А Вы просто скачайте первый выпуск, послушайте.... Если любите красивую музыку, Вам покажется мало:)

Мне очень нравится, в машине жесткий диск всего 8 гб. Так бы все засунул....

мне 30-й очень нравится...

В сети искал несколько понравившихся треков и случайно узнал с какого сборника они. Зашёл сюда, а тут такое! Тут все сборники! Большое человеческое спасибо!

когда ждать продолжения?

Большое спасибо за качественную музыку и отличную раздачу!

Andrey Faustov писал(а):у меня есть идея о новом подкасте, отдохну может немного и думаю, запущу новый, только в другом направлении, не чилл.
Andrey Faustov писал(а):Мне страшно даже говорить об этом) скорей всего это будет ближе к эмбиенту, даунтемпо и трипхопу. Мне кажется что я вытянул из чиллаута всё, что мог.
Отличная новость на самом деле. Ты проделал потрясающую работу в этом направлении, большое спасибо, можно с чистой совестью браться за другой стиль.

Спасибо за работу! Вы талантливый человек, Андрей.

Ребят, внимание, изменилась структура папок в раздаче!

Andrey Faustov
уууу...!)))
неожиданно...! спасибо...)

Вроде с треклистом House путаница ...
23:40:00 начинается Feeling U, хотя д.б. другой трек

Отличная раздача.

Ждал, ждал.... Отсутствовал некоторое время, захожу в любимый топик, а тут такие подарки:)
Спасибо, Андрей!

Здрасте. Вот на днях качнул пару "Коастов". Вещь отличная, но есть момент- уход в оверлоад :

Кстати, впервые вижу выход сигнала на Спектроанализаторе Фубара за +0

Andrey Faustov
два последних выпуска шикарны... гоняем их вместе с женой...по кругу...))

Зашел и не поверил своим глазам, спасибо.
зы. Как жаль что всего 6 серий

А дальше будет?

Спасибо!

Спасибо!

вау тут есть ценители

урааа)) наконец-то 2 серия)
спасибо)))

KirillIvanov
На тебя одна надежда, в раздаче контента качественного. Есть одно норвежское творение - SKAM, может знаешь? Если будет возможность и желание...

ну это, конечно, клёво, заливать третью, когда уже вышла пятая и должна быть переведена четвёртая

Glada95 писал(а):

ну это, конечно, клёво, заливать третью, когда уже вышла пятая и должна быть переведена четвёртая
а вот это уже свинство: вместо благодарности - возмущаться. скажите "спасибо", что люди этим занимаются, а мы имеем возможность это увидеть...

hampy8686 писал(а):

KirillIvanov
На тебя одна надежда, в раздаче контента качественного. Есть одно норвежское творение - SKAM, может знаешь? Если будет возможность и желание...
SKAM есть в озвучке уже. Ищите на других трекерах или в ВК

Если мне предоставят субтитры в формате srt - незамедлительно сделаю раздачу в качестве Wed-dl 1080p. Или же завтра вечером посмотрю на английском, удалю и забуду. Вам решать.

Спасибо! Есть информация о дальнейшей судьбе сериала?

Спасибо за раздачу!

Ни один из актеров-актрис не раздражает. Буду смотреть, спасибо.

Спасибо за раздачу и перевод!

KLZazy
Благодарность за ознакомление! А не будет ли любезен многоуважаемый релизер конвертировать данную запись в формат, соответствующей данному разделу , или указать правильный битрейт в оформлении раздачи, или переместить его в раздел "Собственные оцифровки"! Мне лично, до одного места, но как бы порядок - есть порядок!

pretenders писал(а):

20.08.13 добавлен сентябрьский номер.
Замечательный по качеству и нужный пост. Спасибо огромное!
[img][/img]

можно каждый месяц заходить и проверять? Они еще издавали на ДВД или СД все статьи за десятки лет, есть такая сборка?
Есть номера до 2008?

Когда будет продолжение?

Почему больше не выкладываете ??? Так интересно было !!! Каждый месяц ждал !!!

где продолжение?

Недавно как раз вспоминал !!! Дай думаю посмотрю !!! Вот Это Дааааа !!! Фенкс !!!!

Спасибо Вам огромное! Всех благ!

Спасибо, даже не надеялся на продолжение!

qwer.wai
Просьба убрать номера, которые есть здесь - http://rutracker.org/forum/viewtopic.php?t=1397719 (эта раздача может быть поглощена только через месяц).
Правила по оформлению раздач журналовЦитата:Если в подшивке журнала отсутствует более 3-х уже вышедших и размещенных на трекере более 1 месяца с момента последнего обновления раздачи номеров журнала, то такая раздача (подшивка) может быть поглощена любым другим релизером, но только при условии добавления этих недостающих номеров. Для журналов, выходящих чаще одного раза в месяц, поглощение возможно не ранее, чем через 3 месяца.
По оформлению - примеры страниц должны быть размером 750...1000 пикселей по большей стороне; их вместе с обложкой нужно перезалить на разрешенный хостинг (фастпик, радикал).

qwer.waiCucumis писал(а):http://rutracker.org/forum/viewtopic.php?t=1397719
Пора поглощать

Большое Спасибо!
Надеюсь найти информацию по выборе телескопа и астрофотографии

Огромное спасибо за Вашу замечательную работу!

Спасибо! Очень оперативно, и качество - обалдеть!

Здорово! Журнал просто отличный! Спасибо!

даже и не думал что такой журнал есть - Спасибо очень интересно !

а в москве продают бумажную версию?
если знаете в личку напишите продублируйте.

БАЛЕНОР
С наступающим Рождеством Христовым!
И на этот раз большое спасибо!" Но уже за детский фильм с Пиренейского полуострова.
Оскар Сантос Гомес, баскско-испанский кинорежиссёр. Его "Дар" понравился.
А будет и продолжение прошлого года?

Полагаю, видео у вас без поясняющих субтитров от BMIRussian?

это шоу , как топ гир, только благородней вышло... думаю они ещё покажут себя с разных ракурсов.....по моему личному мнению,, после первой серии BBC точно в пройгрыше остались

Спасибо за раздачу

0xotHik
скоро будет 1080p на 7 Гб с 5,1 звуком, субтитрами и всей ерундой

спасибо! поглядим))

M.Heitz писал(а):

это шоу , как топ гир, только благородней вышло... думаю они ещё покажут себя с разных ракурсов.....по моему личному мнению,, после первой серии BBC точно в пройгрыше остались
юмор про зоофилию и фекалии благороднее чем ббс? От момента с кучей мертвых знаменитостей я вообще рукой за лицо взялся.

B o u n c e писал(а):

M.Heitz писал(а):
это шоу , как топ гир, только благородней вышло... думаю они ещё покажут себя с разных ракурсов.....по моему личному мнению,, после первой серии BBC точно в пройгрыше остались
юмор про зоофилию и фекалии благороднее чем ббс? От момента с кучей мертвых знаменитостей я вообще рукой за лицо взялся.
Посмеялся ))
Вам передачи о машинах пацанских как в стиле балета или картинной галереи делать?
Может, просто выйти на сцену и прочитать спецификацию?

M.Heitz писал(а):после первой серии BBC точно в пройгрыше остались
ББС вроде как дали свой ответ, выпустив новый Топ-Жир с новыми героями. Я, правда, не смотрел и народ говорит что вышел у них фуфел полный, но сдаваться они по видимому тоже не намерены.

Научите плз, если есть такая опция, как смотреть без перевода. Все-же английский юмор тоньше того, как его часто-густо опошляют переводом...

Любимые ведущие, прекрасное шоу, лучшая, имхо, озвучка (от "Джетвисов"), и всё это с приемлемым размером - ну что ещё нужно для счастья? Спасибо за релиз!Кот 1962 писал(а):

как смотреть без перевода
Найти и скачать другую раздачу, в которой присутствует оригинальная (EN) звук. дорожка.

Sentryx писал(а):

Любимые ведущие, прекрасное шоу, лучшая, имхо, озвучка (от "Джетвисов"), и всё это с приемлемым размером - ну что ещё нужно для счастья? Спасибо за релиз!Кот 1962 писал(а):
как смотреть без перевода
Найти и скачать другую раздачу, в которой присутствует оригинальная (EN) звук. дорожка.
Дякую

подпишусь.спасибо .

Где 3 серия ?

Son1c_ писал(а):

Где 3 серия ?
Присоединяюсь! Когда ждать???

Спасибо.

Разочарован. Как-то не очень.. 4 серии уже отстой, зря ждал.

n7f7 писал(а):

Разочарован. Как-то не очень.. 4 серии уже отстой, зря ждал.
Бедный, так ждал, так ждал... Наверное Джереми твой коммент как увидит - расстроится:(

zaqnhymju писал(а):

n7f7 писал(а):
Разочарован. Как-то не очень.. 4 серии уже отстой, зря ждал.
Бедный, так ждал, так ждал... Наверное Джереми твой коммент как увидит - расстроится:(
Человек свое мнение высказал, при этом вполне культурно, но все равно нужно вставить свои "пять копеек". Бедный, смотри от желчи не лопни.

dimon_soft писал(а):

zaqnhymju писал(а):
n7f7 писал(а):
Разочарован. Как-то не очень.. 4 серии уже отстой, зря ждал.
Бедный, так ждал, так ждал... Наверное Джереми твой коммент как увидит - расстроится:(
Человек свое мнение высказал, при этом вполне культурно, но все равно нужно вставить свои "пять копеек". Бедный, смотри от желчи не лопни.
Спасибо за заботу

S.c.a.r.a.b.e.y
С наступающим! Огромная благодарность за Вашу работу!
С нетерпением ждём продолжения!

а 7 серия здесь появится?)

За сплит 1991 года - большущее спасибо, не обращал на него раньше внимания. А ведь все команды как раз были на пике. Особенно хочется отметить Loudblast.

Слушал давно несколько альбомов - не зацепило. Думаю надо переслушать, тем более тут такая полная дискография появилась) Спасибо.

всем любителям подобного олдскула советую Masacre

Спасибо за раздачу, энергичный дэтметал. Одна из любимых групп.

Интересная хрень...не первый раз уже замечаю!!!
иногда из скаченного материала, некоторые трэки не функционируют!!!
На этот раз я попытался перезакачать - та же хрень:
не воспроизводятся и даже свойства не показываются
я так несколько коллекций скачал и записал на диски. Вот так однажды записал, удаляю записанный материал, хуяк...
а некоторые трэки и сканы не удаляются.
Вот так и обнаружил я этот бок. Теперь перед каждой записью скачанного, я этот материал прохожу вручную курсором мышки - веду ею сверху вниз.
отличить эти "запоротые трэки" легко - на них вообще нет тегов!!!
Вот веду курсор - теги меняются и бах... провал. Я на плэй а там болт.
Советую так делать всем! Песни тупо не играют вообще!!!
Я скачал тут много дискографий и уже 5-6 из них имели этот партак.
Может у меня чёто не то, не знаю. 4 мегабита скорости и связь проблем не доставляет.
Итак, ПРОСЬБА тем кто скачал - посмотрите как у вас обстоят дела с:
Asphyx - 2009 - Ancient Wisdom (bonus cd Embrace The Death)
находится в папке Asphyx - 1996 - Embrace The Death (2cd remastering 2009)
НАПИШИТЕ пожалуйста - КАК у вас обстоят дела со 2 и 16 трэками!!!
- 02. Streams of Ancient Wisdom [EP version]
- 16. Streams of Ancient Wisdom [rough mix]
Затем:
Asphyx - 2000 - The Way of Samael (vinyl bootleg)
- 09 - The Sickened Dwell (Promo 1991, try out recording with Martin Van Drunen)-320Kbs
- 11 - Diabolical Existence (Promo 1991, try out recording with Martin Van Drunen)-320Kbs
Я их перезакачал заново но они опять НЕ рабочие
у меня во всяком случае!
наведите на них мышкой - теги есть? свойства вылетают?
Спасибо
Господа, кого интересует:
тут их первая дёмка 1988 - Carnage Remains (Demo)
http://lockjaw-yappy.blogspot.com/2010/08/asphyx-ntl-demo-88-carnage-remains-reh.html
а здесь 2010 - Live Death Doom
http://www.metalage.ru/viewalbum.php?entry=1285818233
удачи!
и напишите по поводу моей просьбы)))
и ещё, вот трэк лист на live in Holland (live Bootleg)
это кстати ливовик 89 года:
01. Diobolical Excistence
02. Vermin
03. Evocation
04. Ode to a Nameless Grave
05. The Sickening Dwell
06. Pages of Blood
07. Wasteland of Terror
08. The Rack
09. Rite of Shades
10. The Crusher
11. Crush the Cenotaph

Спасибо ! Отличная раздача _ качественные рипы

GrossDogg- Поддержу раздачу!Не надолго,затем удолю.Отличный,энергичный Death Metal.

старик,все темы воспроизводяться..специально проверил каждую..

Алекс Scrip
смахивает на траблы с жёстким диском.

Алекс Scrip писал(а):Интересная хрень...не первый раз уже замечаю!!!
иногда из скаченного материала, некоторые трэки не функционируют!!!
На этот раз я попытался перезакачать - та же хрень:
не воспроизводятся и даже свойства не показываются
я так несколько коллекций скачал и записал на диски. Вот так однажды записал, удаляю записанный материал, хуяк...
а некоторые трэки и сканы не удаляются.
Вот так и обнаружил я этот бок. Теперь перед каждой записью скачанного, я этот материал прохожу вручную курсором мышки - веду ею сверху вниз.
отличить эти "запоротые трэки" легко - на них вообще нет тегов!!!
Вот веду курсор - теги меняются и бах... провал. Я на плэй а там болт.
Советую так делать всем! Песни тупо не играют вообще!!!
Я скачал тут много дискографий и уже 5-6 из них имели этот партак.
Может у меня чёто не то, не знаю. 4 мегабита скорости и связь проблем не доставляет.
Головкой не пробовал подумать?
98% что проблема в длинном имени файла (во всех описанных случаях)
Если полный адрес к файлу (не конкретно название, а общий ПУТЬ к файлу) в винде превышает допустимый, то он его не будет читать. Никак.
Например
C:\Documents and Settings\User\ ...***... \The Black Keys\albums\2010 - Brothers [Deluxe Edition]\CD 1\08 - Too Afraid to Love You.mp3
-общая длина не должна превышать норму
В Windows длина пути ограничена константой MAX_PATH, равной 260 символам

Не один ты такой додумчивый)) вообще-то, я и названия песен менял вплоть до 1 знака. И менял название папок. Кстати, иногда реально помогает - песня начинает читаться и тэги появляются. Но не всегда. 50 на 50! Купил ещё один жесткий. Тот был на 500гиг, этот на терабайт. Специально брал другой фирмы. Скачивал с торрента - опять это явление случается! И винду перебивал 2 раза. Всё равно... Я же говорю, иногда название папки альбома или самой папки куда качал меняешь - всё становится нормально. Иногда. Думал может быть потому что много папок - по принципу матрешки - выносил или качал в корень. Похер

Может быть, это какие-то траблы с торрент-клиентом? Попробуй выйти из него и проверить, не исчезла ли проблема (обычно файлы не удаляются, если на данный момент с тебя кто-то скачивает). Или поставь другой. У меня, помню, не удалялись и не читались папки, созданные Extract Audio Copy, только потому что в имени папки было троеточие.

спасибо))любимая группа..а новый альбомчик, который в феврале выйдет ,будет??

Аффтар, а что будет если не удалим файлы после ознакомления, а?
ЗЫ. Кстати, Спасибо тебе большое за дискографию Asphyx-ов. Обожаю Death Metal.

Вот объясни, уважаемый! Альбом Deathhammer 2012. Трэклист в описании ты исправил правильно (01. Into The Timewastes; 10. As The Magma Mammoth Rises). Об этом писал на других форумах по этому альбому 9800GX2 и все источники указывают, что это ошибка. А в тэгах и названиях файлов видимо забыл. Можешь объяснить - откуда пошла ошибка, где зарыта собака?

да у меня к тебе претензий нет, просто интересно - кто изначально накосячил?

Из общей огромной массы всякой тяжёлой музыки прослушанной мною лет так за 25, творчество Asphyx каким то образом я пропустил. Скачав и прослушав последний альбом, сейчас качаю всю дискографию. Альбом просто бомба! Автору раздачи - респект!

Последний альбом дико качает. Как и предыдущий.
Решил скачать альбомы без Ван Дрюнена, с ним все уже до дыр заслушал.

Какие еще альбомы с подобным гитарным звучанием как на Death...The Brutal Way и Deathhammer есть? Только грайнды не надо.

psycho with minigun здесь грайнды нет, 2000й качай))))))))

sergray13 писал(а):psycho with minigun здесь грайнды нет, 2000й качай))))))))
Я имел ввиду альбомы любых ДРУГИХ групп с похожим звучанием гитар(Death The Brutal Way, Deathhammer), а не остальные творения Аsphux'а.

Большое спасибо за очень даже достойную группу.Открытие для меня.

Asphyx это звучит круто и горда, олицетворение голландского дэт метал, какие изящные опусы The Rack, Last One On Earth супер классика мирового дэта, всем качать и трусить хаером.

GrossDogg , огромное спасибо за релиз , Аспхикс действительно крутая команда , прнавда последние "хардкоровые" альбомы я не совсем распробовал , мне больше по духу их старый дум-дэт 91-94-го годов .

Прекрасный, ВЫСОКИЙ дэт играет команда.
Как будто специально под меня. Обожаю, тащусь, отрываюсь.
Тяжесть просто охренительная, драйв необыкновенный, злоба - первобытная.
ФАНТАСТИЧЕСКИ ИСКРЕННЕ играют.
Спасибо всем, кто выложил и поддерживает раздачу.

Спасибо за раздачу. Давненько я их не слышал.
Жаль, что после ознакомления придется удалить .

Вообще ахуеннейшая контора, большущее спасибо за АПлоад. Особенно ранние альбомы и редкие миньоны радуют в релизе! Уважуха.

Весьма странно, что так и не был не был ремастирован отличнейший альбом 1994-Asphyx

Я не очень люблю Death Metal, но Asphyx нравится !!!!!!! Первый раз познакомился с этой группой в 2003-ем году когда друг дал мне кассету "Traces of Death II"В то время мы с другом очень фанатели от музыки на этой кассете !!!! Сейчас вспомнил про все те группы, которое были на этой кассете и решил их скачать !!!!

Часть тегов надо подредактировать

когда раздача то?

baal1983 писал(а):[quote]Торрент обнавлён ,добавил :[NE29] Lundin Oil - Between the Shields [2016]
будет еще торрент обновляться?

baal1983 писал(а):[quote]Eto Sasha. писал(а):[quote]baal1983 писал(а):[quote]Торрент обнавлён ,добавил :[NE29] Lundin Oil - Between the Shields [2016]
будет еще торрент обновляться?
Да будет!Возможно сегодня
Торрент обнавлён ,добавил :[NE30] Various - Scandinavian Swords II [2016]
[NE31] Acronym - Guadalquivir [2016]
[NE34] Abdulla Rashim - Of Water And The Spirit [2016]
[NE35] Vit Fana - Irrgang [2016]
[NE36] Varg - Nordic Flora Series Pt.1 Heroine [2016]
[NE37] Isorinne - Echoic Memoir [2016]
+
[NE38] Norin - Frammande [2016]

спасибо большое! А не можете подсказать: есть ли на трекере данный релиз:
https://blackesteverblack.bandcamp.com/album/you-know-what-its-like ?

Studia urbanica - Ольденбург Р. - Третье место: кафе, кофейни, книжные магазины, бары, салоны красоты и другие места «тусовок» как фундамент сообщества [2014, PDF, RUS] - http://rutracker.org/forum/viewtopic.php?t=5323821

Отличная музыка, слушаю с удовольствием! Спасибо за раздачу!!!

Настоящее эмоциональное наслаждение, спасибо дружище!!!

Будут ещё такие шедевры?

Ребят, уже есть и 13-ый и 14-ый выпуски тутскрытый текстhttps://promodj.com/yaric-melody... ещё отличный выпуск у Type 41 – Digital Euphoria 128